<?xml version="1.0" standalone="no"?>
<!DOCTYPE svg PUBLIC "-//W3C//DTD SVG 1.1//EN" "http://www.w3.org/Graphics/SVG/1.1/DTD/svg11.dtd" >
<svg xmlns="http://www.w3.org/2000/svg" xmlns:xlink="http://www.w3.org/1999/xlink" version="1.1">
<metadata>
Created by FontForge 20170731 at Mon Jan 25 15:27:16 2021
 By Aleksey,,,
Copyright (c) 2009 by Eduardo Manso. All rights reserved.
</metadata>
<defs>
<font id="Geogrotesque-Bold" horiz-adv-x="532" >
  <font-face 
    font-family="Geogrotesque Bd"
    font-weight="700"
    font-stretch="normal"
    units-per-em="2048"
    panose-1="2 0 0 0 0 0 0 0 0 0"
    ascent="1536"
    descent="-512"
    x-height="1024"
    cap-height="1393"
    bbox="-200.563 -570.769 2890 1974"
    underline-thickness="102"
    underline-position="-307"
    unicode-range="U+0020-FB04"
  />
<missing-glyph horiz-adv-x="1722" 
d="M1368 193q-103 -102 -235.5 -155.5t-274.5 -53.5q-139 0 -271 54t-233 155q-103 101 -157 233t-54 272q0 139 54 271t157 235q101 101 233 155t271 54q140 0 274.5 -54t235.5 -155q102 -102 156.5 -235t54.5 -271q0 -140 -54.5 -271.5t-156.5 -233.5zM1343 217
q99 99 151 224t52 257t-52 257.5t-151 224.5q-98 98 -224 149t-261 51q-133 0 -257 -51t-222 -149q-100 -100 -151.5 -224.5t-51.5 -257.5t51.5 -258t151.5 -223q98 -98 222.5 -149.5t256.5 -51.5q135 0 261 51.5t224 149.5zM1049 328l-189 188l-188 -188q-24 -24 -43 -24
t-43 24l-105 106q-43 40 2 82l189 189l-189 188q-25 25 -26 43.5t22 40.5l105 106q25 23 45 23t43 -25l188 -188l189 188q25 25 43.5 26t40.5 -22l106 -104q23 -25 23 -45t-25 -43l-188 -188l188 -189q24 -24 24 -43t-24 -43l-107 -104q-22 -23 -40.5 -22.5t-40.5 24.5z" />
    <glyph glyph-name="ff" unicode="ff" horiz-adv-x="1382" 
d="M190 1020h3v100q0 150 118.5 235t345.5 85h23q32 0 46.5 -14t14.5 -46v-145q0 -32 -14.5 -46.5t-46.5 -14.5h-23q-137 0 -137 -91v-63h314v100q0 150 118.5 235t345.5 85h23q32 0 46.5 -14t14.5 -46v-145q0 -32 -14.5 -46.5t-46.5 -14.5h-23q-137 0 -137 -91v-63h146
q33 0 47 -12.5t14 -44.5v-140q0 -32 -14 -45.5t-47 -13.5h-146v-703q0 -33 -12.5 -47t-44.5 -14h-211q-32 0 -45.5 14t-13.5 47v703h-314v-703q0 -33 -12.5 -47t-44.5 -14h-211q-32 0 -45.5 14t-13.5 47v703h-103q-32 0 -45.5 13.5t-13.5 45.5v125q0 31 12.5 43t46.5 17z
" />
    <glyph glyph-name="fi" unicode="fi" horiz-adv-x="1263" 
d="M1161 963v-902q0 -33 -12.5 -47t-44.5 -14h-211q-32 0 -45.5 14t-13.5 47v703h-314v-703q0 -33 -12.5 -47t-44.5 -14h-211q-32 0 -45.5 14t-13.5 47v703h-103q-32 0 -45.5 13.5t-13.5 45.5v125q0 31 12.5 43t46.5 17l100 12h3v92q0 150 118.5 235t345.5 85h443
q32 0 46.5 -14t14.5 -46v-145q0 -32 -14.5 -47t-46.5 -15h-443q-137 0 -137 -90v-55h580q33 0 47 -12.5t14 -44.5z" />
    <glyph glyph-name="fl" unicode="fl" horiz-adv-x="1263" 
d="M1161 1372v-1311q0 -33 -12.5 -47t-44.5 -14h-211q-32 0 -45.5 14t-13.5 47v1104h-177q-137 0 -137 -90v-55h146q33 0 47 -12.5t14 -44.5v-140q0 -32 -14 -45.5t-47 -13.5h-146v-703q0 -33 -12.5 -47t-44.5 -14h-211q-32 0 -45.5 14t-13.5 47v703h-103q-32 0 -45.5 13.5
t-13.5 45.5v125q0 31 12.5 43t46.5 17l100 12h3v92q0 150 118.5 235t345.5 85h443q32 0 46.5 -14t14.5 -46z" />
    <glyph glyph-name="ffi" unicode="ffi" horiz-adv-x="1904" 
d="M190 1020h3v100q0 150 118.5 235t345.5 85h23q32 0 46.5 -14t14.5 -46v-145q0 -32 -14.5 -46.5t-46.5 -14.5h-23q-137 0 -137 -91v-63h314v92q0 150 118.5 235t345.5 85h443q32 0 46.5 -14t14.5 -46v-145q0 -32 -14.5 -47t-46.5 -15h-443q-137 0 -137 -90v-55h580
q33 0 47 -12.5t14 -44.5v-902q0 -33 -12.5 -47t-44.5 -14h-211q-32 0 -45.5 14t-13.5 47v703h-314v-703q0 -33 -12.5 -47t-44.5 -14h-211q-32 0 -45.5 14t-13.5 47v703h-314v-703q0 -33 -12.5 -47t-44.5 -14h-211q-32 0 -45.5 14t-13.5 47v703h-103q-32 0 -45.5 13.5
t-13.5 45.5v125q0 31 12.5 43t46.5 17z" />
    <glyph glyph-name="ffl" unicode="ffl" horiz-adv-x="1904" 
d="M190 1020h3v100q0 150 118.5 235t345.5 85h23q32 0 46.5 -14t14.5 -46v-145q0 -32 -14.5 -46.5t-46.5 -14.5h-23q-137 0 -137 -91v-63h314v92q0 150 118.5 235t345.5 85h443q32 0 46.5 -14t14.5 -46v-1311q0 -33 -12.5 -47t-44.5 -14h-211q-32 0 -45.5 14t-13.5 47v1104
h-177q-137 0 -137 -90v-55h146q33 0 47 -12.5t14 -44.5v-140q0 -32 -14 -45.5t-47 -13.5h-146v-703q0 -33 -12.5 -47t-44.5 -14h-211q-32 0 -45.5 14t-13.5 47v703h-314v-703q0 -33 -12.5 -47t-44.5 -14h-211q-32 0 -45.5 14t-13.5 47v703h-103q-32 0 -45.5 13.5t-13.5 45.5
v125q0 31 12.5 43t46.5 17z" />
    <glyph glyph-name=".notdef" horiz-adv-x="1722" 
d="M1368 193q-103 -102 -235.5 -155.5t-274.5 -53.5q-139 0 -271 54t-233 155q-103 101 -157 233t-54 272q0 139 54 271t157 235q101 101 233 155t271 54q140 0 274.5 -54t235.5 -155q102 -102 156.5 -235t54.5 -271q0 -140 -54.5 -271.5t-156.5 -233.5zM1343 217
q99 99 151 224t52 257t-52 257.5t-151 224.5q-98 98 -224 149t-261 51q-133 0 -257 -51t-222 -149q-100 -100 -151.5 -224.5t-51.5 -257.5t51.5 -258t151.5 -223q98 -98 222.5 -149.5t256.5 -51.5q135 0 261 51.5t224 149.5zM1049 328l-189 188l-188 -188q-24 -24 -43 -24
t-43 24l-105 106q-43 40 2 82l189 189l-189 188q-25 25 -26 43.5t22 40.5l105 106q25 23 45 23t43 -25l188 -188l189 188q25 25 43.5 26t40.5 -22l106 -104q23 -25 23 -45t-25 -43l-188 -188l188 -189q24 -24 24 -43t-24 -43l-107 -104q-22 -23 -40.5 -22.5t-40.5 24.5z" />
    <glyph glyph-name=".null" horiz-adv-x="0" 
 />
    <glyph glyph-name="nonmarkingreturn" horiz-adv-x="682" 
 />
    <glyph glyph-name="space" unicode=" " horiz-adv-x="368" 
 />
    <glyph glyph-name="exclam" unicode="!" horiz-adv-x="589" 
d="M465 799l-33 -348q-3 -34 -14.5 -48t-42.5 -14h-158q-31 0 -43.5 14t-15.5 48l-33 348v532q0 33 13.5 47.5t45.5 14.5h224q32 0 44.5 -14.5t12.5 -47.5v-532zM461 229v-170q0 -32 -13 -45.5t-45 -13.5h-221q-32 0 -45.5 13.5t-13.5 45.5v170q0 33 13.5 47.5t45.5 14.5
h221q32 0 45 -14.5t13 -47.5z" />
    <glyph glyph-name="quotedbl" unicode="&#x22;" horiz-adv-x="931" 
d="M424 1331l-27 -327q0 -33 -12.5 -47.5t-44.5 -14.5h-150q-31 0 -43.5 14t-15.5 48l-27 327q-6 62 60 62h203q63 0 57 -62zM827 1331l-26 -327q0 -33 -13 -47.5t-45 -14.5h-149q-31 0 -43.5 14t-15.5 48l-27 327q-6 62 59 62h203q63 0 57 -62z" />
    <glyph glyph-name="numbersign" unicode="#" horiz-adv-x="1413" 
d="M184 559h129l35 121h-61q-33 0 -47.5 13.5t-14.5 45.5v109q0 32 14.5 44.5t47.5 12.5h127l41 144q16 61 73 61h150q60 0 43 -61l-41 -144h223l41 144q16 61 74 61h149q60 0 43 -61l-41 -144h60q33 0 47 -12.5t14 -44.5v-109q0 -32 -14 -45.5t-47 -13.5h-125l-35 -121h57
q33 0 47.5 -12.5t14.5 -44.5v-109q0 -32 -14.5 -45.5t-47.5 -13.5h-122l-41 -146q-9 -32 -26 -46.5t-48 -14.5h-150q-28 0 -40 15.5t-3 45.5l41 146h-223l-41 -146q-9 -32 -26 -46.5t-48 -14.5h-149q-28 0 -40 15.5t-3 45.5l41 146h-64q-33 0 -47 13.5t-14 45.5v109
q0 32 14 44.5t47 12.5zM614 680l-34 -121h223l35 121h-224z" />
    <glyph glyph-name="dollar" unicode="$" horiz-adv-x="1105" 
d="M672 905v29q0 65 -113 65q-110 0 -110 -65v-10q0 -39 43 -56l286 -102q205 -73 205 -221v-99q0 -86 -62.5 -157t-189.5 -103v-125q0 -33 -12.5 -47t-44.5 -14h-211q-32 0 -46 14.5t-14 46.5v119q-143 26 -211.5 99.5t-68.5 166.5v43q0 30 12.5 43t42.5 13h189
q30 0 42.5 -13t12.5 -43v-28q0 -66 129 -66q131 0 131 66v18q0 20 -16 32.5t-64 31.5l-289 110q-61 23 -111 88t-50 136v57q0 92 60 168t191 106v123q0 33 14 47.5t46 14.5h211q32 0 44.5 -14.5t12.5 -47.5v-127q124 -31 182 -106t58 -164v-29q0 -31 -13 -44t-45 -13h-186
q-30 0 -42.5 13t-12.5 44z" />
    <glyph glyph-name="percent" unicode="%" horiz-adv-x="1867" 
d="M123 973v192q0 244 340 244q338 0 338 -244v-192q0 -244 -338 -244q-340 0 -340 244zM535 985v170q0 45 -74 45q-72 0 -72 -45v-170q0 -47 72 -47q74 0 74 47zM1479 236v170q0 45 -74 45q-72 0 -72 -45v-170q0 -48 72 -48q74 0 74 48zM1067 223v193q0 243 340 243
q338 0 338 -243v-193q0 -243 -338 -243q-340 0 -340 243zM1419 1331l-671 -1270q-18 -33 -37.5 -47t-51.5 -14h-176q-26 0 -33 21t5 40l671 1270q30 62 88 62h177q27 0 34.5 -18.5t-6.5 -43.5z" />
    <glyph glyph-name="ampersand" unicode="&#x26;" horiz-adv-x="1449" 
d="M625 842h702q33 0 47.5 -13t14.5 -45v-149q0 -32 -14.5 -46t-47.5 -14h-104v-241q0 -56 -15.5 -104.5t-55.5 -94.5t-102 -78.5t-162 -52.5t-229 -20q-557 0 -557 342v159q0 163 164 234q-75 29 -109 79t-34 126v143q0 56 13 103.5t47 92.5t87 76.5t138 50.5t196 19
q112 0 198.5 -20t140 -52.5t88 -78.5t48 -94.5t13.5 -104.5v-74q0 -33 -13 -47t-45 -14h-211q-32 0 -45.5 14t-13.5 47v25q0 133 -156 133q-77 0 -115 -32t-38 -101v-35q0 -68 45.5 -100.5t124.5 -32.5zM664 250q231 0 231 133v192h-291q-170 0 -170 -131v-61
q0 -69 57.5 -101t172.5 -32z" />
    <glyph glyph-name="quotesingle" unicode="'" horiz-adv-x="528" 
d="M424 1331l-27 -327q-3 -34 -14.5 -48t-42.5 -14h-150q-31 0 -43.5 14t-15.5 48l-27 327q-6 62 60 62h203q63 0 57 -62z" />
    <glyph glyph-name="parenleft" unicode="(" horiz-adv-x="733" 
d="M102 -127v1257q0 150 119 235t346 85h23q33 0 47 -13.5t14 -45.5v-146q0 -32 -14.5 -46.5t-46.5 -14.5h-23q-65 0 -96 -20.5t-31 -69.5v-1184q0 -49 31 -69.5t96 -20.5h23q32 0 46.5 -15t14.5 -47v-145q0 -32 -14 -45.5t-47 -13.5h-23q-227 0 -346 85t-119 234z" />
    <glyph glyph-name="parenright" unicode=")" horiz-adv-x="733" 
d="M631 1130v-1257q0 -149 -119 -234t-346 -85h-23q-33 0 -47 13.5t-14 45.5v145q0 32 14.5 47t46.5 15h23q65 0 96 20.5t31 69.5v1184q0 49 -31 69.5t-96 20.5h-23q-32 0 -46.5 14.5t-14.5 46.5v146q0 32 14 45.5t47 13.5h23q227 0 346 -85t119 -235z" />
    <glyph glyph-name="asterisk" unicode="*" horiz-adv-x="1136" 
d="M627 528h-109q-63 0 -57 62l20 239l-213 -137q-53 -35 -82 23l-49 96q-16 30 -10.5 48.5t37.5 31.5l205 86l-205 88q-32 13 -37.5 31.5t10.5 48.5l49 96q29 58 82 23l215 -140l-22 265q-3 33 11.5 47t47.5 14h109q63 0 57 -61l-22 -256l204 131q54 37 82 -21l51 -98
q15 -27 10 -47t-36 -33l-207 -88l207 -86q31 -13 36 -33t-10 -47l-51 -98q-28 -58 -82 -21l-202 129l20 -231q3 -33 -11.5 -47.5t-47.5 -14.5z" />
    <glyph glyph-name="plus" unicode="+" horiz-adv-x="1128" 
d="M430 293v266h-266q-33 0 -47.5 13.5t-14.5 45.5v150q0 32 14.5 44.5t47.5 12.5h266v269q0 33 12.5 47t44.5 14h150q32 0 45.5 -14t13.5 -47v-269h269q33 0 47 -12.5t14 -44.5v-150q0 -32 -14 -45.5t-47 -13.5h-269v-266q0 -33 -13.5 -47.5t-45.5 -14.5h-150
q-32 0 -44.5 14.5t-12.5 47.5z" />
    <glyph glyph-name="comma" unicode="," horiz-adv-x="600" 
d="M164 86v143q0 33 13.5 47.5t45.5 14.5h217q32 0 45 -14.5t13 -47.5v-161q0 -251 -338 -328q-32 -8 -49 1t-27 40l-49 139q-20 58 41 76q51 15 69.5 35t18.5 55z" />
    <glyph glyph-name="hyphen" unicode="-" horiz-adv-x="874" 
d="M164 723h547q33 0 47 -12.5t14 -44.5v-150q0 -32 -14 -45.5t-47 -13.5h-547q-33 0 -47.5 13.5t-14.5 45.5v150q0 32 14.5 44.5t47.5 12.5z" />
    <glyph glyph-name="period" unicode="." horiz-adv-x="538" 
d="M436 229v-170q0 -33 -12.5 -46t-44.5 -13h-217q-32 0 -46 13.5t-14 45.5v170q0 33 14 47.5t46 14.5h217q32 0 44.5 -14.5t12.5 -47.5z" />
    <glyph glyph-name="slash" unicode="/" horiz-adv-x="747" 
d="M743 1370l-391 -1612q-8 -33 -23 -47t-46 -14h-232q-29 0 -41.5 15.5t-5.5 45.5l391 1612q8 32 23.5 47t46.5 15h231q63 0 47 -62z" />
    <glyph glyph-name="zero" unicode="0" horiz-adv-x="1169" 
d="M82 334v725q0 69 27.5 129.5t84.5 111t157 80t233 29.5t233.5 -29.5t157.5 -80t84.5 -111t27.5 -129.5v-725q0 -69 -27.5 -129.5t-84.5 -111t-157.5 -80t-233.5 -29.5t-233 29.5t-157 80t-84.5 111t-27.5 129.5zM750 393v606q0 68 -45 101t-121 33t-120 -33t-44 -101
v-606q0 -68 44 -100.5t120 -32.5t121 33t45 100z" />
    <glyph glyph-name="one" unicode="1" horiz-adv-x="1169" 
d="M186 1325l535 84q25 4 41 -7.5t16 -49.5v-1076h244q33 0 47 -12.5t14 -44.5v-160q0 -32 -14 -45.5t-47 -13.5h-836q-33 0 -47 13.5t-14 45.5v160q0 32 14 44.5t47 12.5h254v809l-254 -36q-61 -9 -61 51v160q0 31 15 45.5t46 19.5z" />
    <glyph glyph-name="two" unicode="2" horiz-adv-x="1169" 
d="M453 276h571q33 0 47 -12.5t14 -44.5v-160q0 -32 -14 -45.5t-47 -13.5h-848q-33 0 -47 13.5t-14 45.5v369q0 40 8.5 69.5t27 49.5t38 33t51.5 28l436 199q32 14 48.5 37.5t16.5 70.5v91q0 67 -45 100t-121 33t-119.5 -32.5t-43.5 -100.5v-74q0 -33 -13 -47.5t-45 -14.5
h-211q-32 0 -45.5 14.5t-13.5 47.5v127q0 70 25.5 129.5t80.5 110.5t153.5 80.5t231.5 29.5t232.5 -29.5t156 -80t83.5 -111t28 -129.5v-131q0 -252 -198 -340l-347 -158q-48 -22 -62.5 -40.5t-14.5 -61.5v-52z" />
    <glyph glyph-name="three" unicode="3" horiz-adv-x="1169" 
d="M432 842h125q79 0 124.5 32.5t45.5 100.5v35q0 133 -154 133q-155 0 -155 -133v-25q0 -32 -14 -46.5t-46 -14.5h-211q-32 0 -44.5 14t-12.5 47v74q0 56 13.5 104.5t48 94.5t88 78.5t140 52.5t198.5 20q111 0 196 -19t138 -50.5t87 -76.5t47 -92.5t13 -103.5v-143
q0 -76 -34.5 -126t-109.5 -79q164 -71 164 -234v-159q0 -70 -24.5 -128.5t-79 -108t-154.5 -77.5t-237 -28q-112 0 -200 19.5t-143.5 52.5t-92 79t-51.5 95t-15 104v74q0 33 12.5 47t44.5 14h211q32 0 46 -14.5t14 -46.5v-25q0 -68 45.5 -100.5t124.5 -32.5t123.5 32.5
t44.5 100.5v61q0 131 -170 131h-146q-32 0 -46.5 14t-14.5 46v149q0 32 14 45t47 13z" />
    <glyph glyph-name="four" unicode="4" horiz-adv-x="1169" 
d="M606 1331l-205 -704h318v704q0 33 13.5 47.5t45.5 14.5h221q32 0 45 -14.5t13 -47.5v-1270q0 -33 -13 -47t-45 -14h-221q-32 0 -45.5 14t-13.5 47v289h-604q-33 0 -47.5 14t-14.5 46v157q0 13 6 37l209 727q16 62 74 62h221q60 0 43 -62z" />
    <glyph glyph-name="five" unicode="5" horiz-adv-x="1169" 
d="M201 1393h780q33 0 47 -13t14 -45v-159q0 -32 -14.5 -46t-46.5 -14h-500v-201h101q139 0 240.5 -29t157.5 -79.5t81.5 -110t25.5 -129.5v-235q0 -55 -15 -104t-51.5 -95t-92.5 -79t-144 -52.5t-200 -19.5q-139 0 -240.5 29.5t-157 80.5t-81 110.5t-25.5 129.5v74
q0 33 12.5 47t44.5 14h211q32 0 46 -14.5t14 -46.5v-25q0 -68 46.5 -100.5t125.5 -32.5t124.5 32.5t45.5 100.5v137q0 131 -170 131h-379q-32 0 -45 14.5t-13 47.5v620q0 33 13 47.5t45 14.5z" />
    <glyph glyph-name="six" unicode="6" horiz-adv-x="1169" 
d="M96 334v725q0 55 14.5 104t50.5 95t90 79t139 52.5t192 19.5t191 -20t137 -52.5t87 -78.5t48 -94.5t14 -104.5v-62q0 -32 -14 -46.5t-46 -14.5h-211q-32 0 -44.5 14t-12.5 47v13q0 133 -149 133q-152 0 -152 -133v-195q95 45 201 45q113 0 200.5 -29.5t138.5 -80
t77 -111.5t26 -129v-176q0 -55 -15 -104t-51 -95t-91 -79t-140 -52.5t-192 -19.5t-192 19.5t-139.5 52.5t-90.5 79t-51 95t-15 104zM739 383v78q0 133 -155 133q-72 0 -113 -30t-41 -91v-90q0 -133 154 -133q155 0 155 133z" />
    <glyph glyph-name="seven" unicode="7" horiz-adv-x="1169" 
d="M137 1393h914q33 0 47 -13t14 -45v-155q0 -20 -10 -45l-486 -1074q-13 -29 -29.5 -45t-45.5 -16h-250q-69 0 -41 61l481 1055h-594q-32 0 -46.5 14t-14.5 46v159q0 32 14 45t47 13z" />
    <glyph glyph-name="eight" unicode="8" horiz-adv-x="1169" 
d="M123 924v135q0 56 12 104t44 94.5t82.5 79t133 52.5t189.5 20t189.5 -20t133.5 -52.5t83 -79t44.5 -94.5t12.5 -104v-135q0 -139 -140 -209q164 -72 164 -211v-170q0 -70 -25 -129.5t-79 -110.5t-152 -80.5t-231 -29.5q-107 0 -192 19.5t-139 52.5t-90 79t-50.5 95
t-14.5 104v170q0 140 162 211q-137 70 -137 209zM739 383v68q0 129 -155 129q-154 0 -154 -129v-68q0 -133 154 -133q155 0 155 133zM719 977v33q0 70 -33 101.5t-102 31.5q-68 0 -100.5 -31.5t-32.5 -101.5v-33q0 -70 32.5 -101.5t100.5 -31.5q69 0 102 32t33 101z" />
    <glyph glyph-name="nine" unicode="9" horiz-adv-x="1169" 
d="M1073 1059v-725q0 -55 -14.5 -104t-50 -95t-90 -79t-139 -52.5t-191.5 -19.5t-191 20t-137 52.5t-87 78.5t-48 94.5t-14 104.5v61q0 33 13.5 47.5t45.5 14.5h211q32 0 44.5 -14.5t12.5 -47.5v-12q0 -133 150 -133q151 0 151 133v192q-91 -43 -200 -43q-113 0 -200.5 29.5
t-139 80t-77.5 112t-26 129.5v176q0 70 25.5 129.5t80 110.5t153 80.5t231.5 29.5t231 -29.5t152 -80.5t79 -110.5t25 -129.5zM739 932v80q-3 131 -153 131q-156 0 -156 -133v-78q0 -133 156 -133q153 0 153 133z" />
    <glyph glyph-name="colon" unicode=":" horiz-adv-x="538" 
d="M436 229v-170q0 -33 -12.5 -46t-44.5 -13h-217q-32 0 -46 13.5t-14 45.5v170q0 33 14 47.5t46 14.5h217q32 0 44.5 -14.5t12.5 -47.5zM436 963v-170q0 -33 -12.5 -46.5t-44.5 -13.5h-217q-32 0 -46 14t-14 46v170q0 32 14 46.5t46 14.5h217q32 0 44.5 -14t12.5 -47z" />
    <glyph glyph-name="semicolon" unicode=";" horiz-adv-x="612" 
d="M510 963v-170q0 -33 -12.5 -46.5t-44.5 -13.5h-217q-32 0 -46 14t-14 46v170q0 32 14 46.5t46 14.5h217q32 0 44.5 -14t12.5 -47zM176 86v143q0 33 14 47.5t46 14.5h217q32 0 44.5 -14.5t12.5 -47.5v-161q0 -251 -338 -328q-32 -8 -49 1t-27 40l-49 139q-20 58 41 76
q51 15 69.5 35t18.5 55z" />
    <glyph glyph-name="less" unicode="&#x3c;" horiz-adv-x="1054" 
d="M891 858l-471 -166l471 -164q32 -10 46.5 -23.5t14.5 -43.5v-201q0 -35 -16 -52.5t-45 -6.5l-733 309q-20 8 -29.5 13t-18 18.5t-8.5 33.5v236q0 29 13.5 42t42.5 24l733 309q29 11 45 -7t16 -53v-200q0 -30 -14.5 -44t-46.5 -24z" />
    <glyph glyph-name="equal" unicode="=" horiz-adv-x="1181" 
d="M164 1004h854q33 0 47 -13t14 -45v-149q0 -32 -14.5 -46t-46.5 -14h-854q-33 0 -47.5 14t-14.5 46v149q0 32 14.5 45t47.5 13zM164 561h854q33 0 47 -12.5t14 -44.5v-150q0 -32 -14 -45.5t-47 -13.5h-854q-33 0 -47.5 13.5t-14.5 45.5v150q0 32 14.5 44.5t47.5 12.5z" />
    <glyph glyph-name="greater" unicode="&#x3e;" horiz-adv-x="1054" 
d="M635 692l-471 166q-32 10 -47 24t-15 44v200q0 35 16.5 53t45.5 7l733 -309q19 -7 29 -13t18 -19.5t8 -33.5v-236q0 -16 -3.5 -26.5t-12.5 -18t-16.5 -11t-22.5 -9.5l-733 -309q-29 -11 -45.5 7t-16.5 52v201q0 30 15 43.5t47 23.5z" />
    <glyph glyph-name="question" unicode="?" horiz-adv-x="1155" 
d="M338 449v133q0 40 9 69.5t28.5 50t38 32.5t49.5 28l211 106q30 15 47.5 39t17.5 70v29q0 67 -45 100t-121 33t-119.5 -32.5t-43.5 -100.5v-74q0 -33 -13 -47.5t-45 -14.5h-211q-32 0 -45.5 14.5t-13.5 47.5v127q0 70 25.5 129.5t80.5 110.5t153.5 80.5t231.5 29.5
t232.5 -29.5t156 -80t83.5 -111t28 -129.5v-70q0 -251 -199 -340l-120 -53q-49 -22 -63.5 -40.5t-14.5 -61.5v-45q0 -33 -13 -46.5t-45 -13.5h-221q-32 0 -45.5 14t-13.5 46zM676 229v-170q0 -32 -13 -45.5t-45 -13.5h-221q-32 0 -45.5 13.5t-13.5 45.5v170q0 33 13.5 47.5
t45.5 14.5h221q32 0 45 -14.5t13 -47.5z" />
    <glyph glyph-name="at" unicode="@" horiz-adv-x="2052" 
d="M1376 -332h-350q-165 0 -298.5 15.5t-226.5 41.5t-162 65.5t-110 81.5t-65.5 95.5t-32.5 101.5t-8 105v680q0 57 8 105t32.5 101.5t65.5 95.5t110 81.5t162 65.5t226.5 41.5t298.5 15.5t298.5 -15.5t226.5 -41.5t162 -65.5t110 -81.5t65.5 -95.5t32.5 -101.5t8 -105v-432
q0 -79 -23.5 -141.5t-73.5 -111t-135.5 -75t-201.5 -26.5q-243 0 -338 125q-142 -125 -319 -125q-137 0 -200 66.5t-63 195.5q0 26 3 53l20 240q12 153 87.5 234t207.5 81q130 0 268 -94l4 16q8 34 21.5 48t44.5 14h186q59 0 53 -62l-38 -373q-4 -50 -4.5 -91.5t21 -68
t67.5 -26.5q26 0 44 9.5t28 23.5t15.5 37t7 44t1.5 52v373q0 53 -14 91t-51.5 71.5t-102.5 54t-169 32t-249 11.5q-180 0 -297.5 -17t-179.5 -52.5t-85.5 -80.5t-23.5 -112v-648q0 -67 23.5 -112t85.5 -80.5t179.5 -52.5t297.5 -17h350q32 0 47 -14.5t15 -46.5v-139
q0 -32 -14.5 -46t-47.5 -14zM909 557l-10 -117q-3 -35 14.5 -56.5t65.5 -21.5q59 0 127 31v2l20 207q-67 51 -127 51q-81 0 -90 -96z" />
    <glyph glyph-name="A" unicode="A" horiz-adv-x="1159" 
d="M690 1393q58 0 76 -62l371 -1270q19 -61 -45 -61h-228q-31 0 -47 15t-24 46l-54 197h-340l-53 -197q-8 -31 -24.5 -46t-47.5 -15h-206q-64 0 -45 61l370 1270q18 62 76 62h221zM666 524l-29 111q-28 108 -64 428q0 -1 -5 -42.5t-11.5 -87.5t-15 -102.5t-18.5 -109.5
t-19 -86l-31 -111h193z" />
    <glyph glyph-name="B" unicode="B" horiz-adv-x="1226" 
d="M635 0h-453q-32 0 -45.5 14t-13.5 47v1270q0 33 13.5 47.5t45.5 14.5h385q140 0 243 -25t162 -69.5t87 -100.5t28 -125v-112q0 -148 -139 -228q97 -39 152 -102.5t55 -143.5v-151q0 -55 -17 -103t-56 -91.5t-97.5 -74.5t-148 -49t-201.5 -18zM635 582h-174v-316h174
q82 0 134 32.5t52 98.5v66q0 56 -53.5 87.5t-132.5 31.5zM567 1126h-106v-295h106q81 0 134 34t53 102v53q0 34 -14.5 56t-42.5 32.5t-57.5 14t-72.5 3.5z" />
    <glyph glyph-name="C" unicode="C" horiz-adv-x="1181" 
d="M1110 459v-125q0 -70 -25.5 -129.5t-81 -110.5t-157 -80.5t-240.5 -29.5t-240.5 29.5t-157 80.5t-81 110.5t-25.5 129.5v725q0 70 25.5 129.5t81 110.5t157 80.5t240.5 29.5t240.5 -29.5t157 -80.5t81 -110.5t25.5 -129.5v-94q0 -33 -12.5 -47.5t-44.5 -14.5h-211
q-32 0 -46 14.5t-14 47.5v34q0 68 -46.5 101t-125.5 33t-124.5 -33t-45.5 -101v-606q0 -68 45.5 -100.5t124.5 -32.5t125.5 32.5t46.5 100.5v66q0 32 14 46.5t46 14.5h211q32 0 44.5 -14t12.5 -47z" />
    <glyph glyph-name="D" unicode="D" horiz-adv-x="1271" 
d="M645 0h-471q-51 0 -51 61v1270q0 33 13.5 47.5t45.5 14.5h463q139 0 243.5 -29.5t164 -80.5t88 -111.5t28.5 -129.5v-692q0 -69 -28.5 -129.5t-88 -111t-164 -80t-243.5 -29.5zM645 1116h-184v-840h184q81 0 133.5 33.5t52.5 100.5v573q0 67 -52.5 100t-133.5 33z" />
    <glyph glyph-name="E" unicode="E" horiz-adv-x="1036" 
d="M903 0h-721q-32 0 -45.5 14t-13.5 47v1270q0 33 13.5 47.5t45.5 14.5h701q33 0 47 -13t14 -45v-159q0 -32 -14.5 -46t-46.5 -14h-422v-266h389q33 0 47 -12.5t14 -44.5v-150q0 -32 -14 -45.5t-47 -13.5h-389v-308h442q33 0 47.5 -12.5t14.5 -44.5v-160q0 -32 -14.5 -45.5
t-47.5 -13.5z" />
    <glyph glyph-name="F" unicode="F" horiz-adv-x="1052" 
d="M930 1393q33 0 47 -13t14 -45v-159q0 -32 -14.5 -46t-46.5 -14h-469v-266h436q33 0 47 -12.5t14 -44.5v-160q0 -32 -14.5 -46t-46.5 -14h-436v-512q0 -33 -13 -47t-45 -14h-221q-32 0 -45.5 14t-13.5 47v1270q0 33 13.5 47.5t45.5 14.5h748z" />
    <glyph glyph-name="G" unicode="G" horiz-adv-x="1202" 
d="M614 758h435q33 0 47 -13t14 -45v-366q0 -70 -25.5 -129.5t-81 -110.5t-157 -80.5t-240.5 -29.5t-240.5 29.5t-157 80.5t-81 110.5t-25.5 129.5v725q0 70 25.5 129.5t81 110.5t157 80.5t240.5 29.5t240.5 -29.5t157 -80.5t81 -110.5t25.5 -129.5v-74q0 -33 -12.5 -47
t-44.5 -14h-211q-32 0 -46 14.5t-14 46.5v14q0 68 -46.5 101t-125.5 33t-124.5 -33t-45.5 -101v-606q0 -68 45.5 -100.5t124.5 -32.5t125.5 32.5t46.5 100.5v88h-168q-32 0 -46.5 14t-14.5 46v159q0 32 14 45t47 13z" />
    <glyph glyph-name="H" unicode="H" horiz-adv-x="1292" 
d="M461 1331v-487h370v487q0 33 14 47.5t46 14.5h221q32 0 44.5 -14.5t12.5 -47.5v-1270q0 -33 -12.5 -47t-44.5 -14h-221q-32 0 -46 14.5t-14 46.5v506h-370v-506q0 -33 -13 -47t-45 -14h-221q-32 0 -45.5 14t-13.5 47v1270q0 33 13.5 47.5t45.5 14.5h221q32 0 45 -14.5
t13 -47.5z" />
    <glyph glyph-name="I" unicode="I" horiz-adv-x="583" 
d="M461 1331v-1270q0 -33 -13 -47t-45 -14h-221q-32 0 -45.5 14t-13.5 47v1270q0 33 13.5 47.5t45.5 14.5h221q32 0 45 -14.5t13 -47.5z" />
    <glyph glyph-name="J" unicode="J" horiz-adv-x="1071" 
d="M352 469v-76q0 -68 38 -100.5t106 -32.5q65 0 95 31.5t30 101.5v938q0 33 13.5 47.5t45.5 14.5h221q32 0 44.5 -14.5t12.5 -47.5v-997q0 -56 -13 -104.5t-46 -94.5t-84.5 -78.5t-133 -52.5t-185.5 -20q-130 0 -225.5 29.5t-148.5 80.5t-77.5 110.5t-24.5 129.5v135
q0 32 14 46.5t46 14.5h215q32 0 44.5 -14t12.5 -47z" />
    <glyph glyph-name="K" unicode="K" horiz-adv-x="1228" 
d="M766 709l440 -648q16 -23 8.5 -42t-38.5 -19h-283q-47 0 -86 61l-324 502h-22v-502q0 -33 -13 -47t-45 -14h-221q-32 0 -45.5 14t-13.5 47v1270q0 33 13.5 47.5t45.5 14.5h221q32 0 45 -14.5t13 -47.5v-522h20l314 522q38 62 96 62h235q31 0 38 -18.5t-9 -43.5z" />
    <glyph glyph-name="L" unicode="L" horiz-adv-x="964" 
d="M461 1331v-1055h401q33 0 47.5 -12.5t14.5 -44.5v-160q0 -32 -14.5 -45.5t-47.5 -13.5h-688q-51 0 -51 61v1270q0 33 13.5 47.5t45.5 14.5h221q32 0 45 -14.5t13 -47.5z" />
    <glyph glyph-name="M" unicode="M" horiz-adv-x="1548" 
d="M1425 1331v-1270q0 -33 -12.5 -47t-44.5 -14h-211q-32 0 -45.5 14t-13.5 47v650q0 -1 -7.5 -27t-17 -58t-21 -69.5t-20.5 -60.5l-90 -224q-24 -61 -80 -61h-178q-52 0 -78 61l-112 260q-25 58 -54 173v-644q0 -33 -12.5 -47t-44.5 -14h-201q-32 0 -45.5 14t-13.5 47v1270
q0 33 13.5 47.5t45.5 14.5h201q37 0 53 -33l279 -627q13 -31 27 -69.5t22.5 -64l9.5 -28.5q0 2 6.5 21.5t21 57.5t32.5 79l268 635q12 29 55 29h211q32 0 44.5 -14.5t12.5 -47.5z" />
    <glyph glyph-name="N" unicode="N" horiz-adv-x="1292" 
d="M1169 1331v-1270q0 -33 -12.5 -47t-44.5 -14h-201q-38 0 -55 29l-328 544q-36 57 -88 185v-697q0 -33 -12.5 -47t-44.5 -14h-201q-32 0 -45.5 14t-13.5 47v1270q0 33 13.5 47.5t45.5 14.5h201q39 0 51 -25l346 -580q32 -55 72 -153v696q0 33 13.5 47.5t45.5 14.5h201
q32 0 44.5 -14.5t12.5 -47.5z" />
    <glyph glyph-name="O" unicode="O" horiz-adv-x="1251" 
d="M102 334v725q0 69 28.5 129.5t87.5 111t163.5 80t243.5 29.5t243.5 -29.5t164 -80t88 -111t28.5 -129.5v-725q0 -69 -28.5 -129.5t-88 -111t-164 -80t-243.5 -29.5t-243.5 29.5t-163.5 80t-87.5 111t-28.5 129.5zM811 393v606q0 67 -52.5 100.5t-133.5 33.5t-133 -33.5
t-52 -100.5v-606q0 -67 52 -100t133 -33t133.5 33t52.5 100z" />
    <glyph glyph-name="P" unicode="P" horiz-adv-x="1200" 
d="M625 473h-164v-412q0 -33 -13 -47t-45 -14h-221q-32 0 -45.5 14t-13.5 47v1270q0 33 13.5 47.5t45.5 14.5h443q139 0 243 -29.5t162.5 -80.5t86.5 -111.5t28 -129.5v-219q0 -69 -28 -129.5t-86.5 -111t-162.5 -80t-243 -29.5zM625 1116h-164v-366h164q81 0 133.5 33
t52.5 100v100q0 67 -52.5 100t-133.5 33z" />
    <glyph glyph-name="Q" unicode="Q" horiz-adv-x="1251" 
d="M1149 1059v-725q0 -70 -27 -130t-91 -111.5t-161 -78.5l195 -172q49 -43 8 -84l-110 -118q-40 -43 -84 -5l-387 357q-200 25 -295 119t-95 223v725q0 69 28.5 129.5t87.5 111t163.5 80t243.5 29.5t243.5 -29.5t164 -80t88 -111t28.5 -129.5zM440 1008v-623q0 -67 52 -100
t133 -33t133.5 33t52.5 100v623q0 67 -52.5 100t-133.5 33t-133 -33t-52 -100z" />
    <glyph glyph-name="R" unicode="R" horiz-adv-x="1236" 
d="M1145 864q0 -94 -51.5 -173t-161.5 -126l201 -504q10 -27 -6.5 -44t-51.5 -17h-221q-8 0 -14.5 1.5t-12 6t-9 7t-7.5 10.5l-5.5 11t-5.5 13t-5 12l-181 453h-153v-453q0 -33 -13 -47t-45 -14h-221q-32 0 -45.5 14t-13.5 47v1270q0 33 13.5 47.5t45.5 14.5h443
q139 0 243 -29.5t162.5 -80.5t86.5 -111.5t28 -129.5v-178zM625 1116h-164v-325h164q81 0 133.5 33t52.5 100v59q0 67 -52.5 100t-133.5 33z" />
    <glyph glyph-name="S" unicode="S" horiz-adv-x="1177" 
d="M762 983v31q0 129 -160 129q-162 0 -162 -129v-21q0 -36 21 -58t45 -30l344 -117q118 -40 187 -119t69 -190v-145q0 -55 -15.5 -104t-53.5 -95t-95 -79t-145.5 -52.5t-200.5 -19.5q-139 0 -242 29.5t-160.5 80.5t-84.5 110.5t-27 129.5v137q0 33 13.5 47t45.5 14h213
q32 0 45 -14t13 -47v-92q0 -67 49.5 -98t130.5 -31t131.5 31t50.5 98v41q0 18 -6.5 33.5t-23 29t-28.5 22.5t-39 20.5t-37.5 16t-41.5 15.5l-295 111q-80 30 -135 107t-55 165v119q0 56 13.5 104.5t48.5 94.5t88.5 78.5t139 52.5t195.5 20t196.5 -19.5t141.5 -52.5t91 -79
t50.5 -95t14.5 -104v-76q0 -32 -14 -46.5t-46 -14.5h-213q-32 0 -44.5 14t-12.5 47z" />
    <glyph glyph-name="T" unicode="T" horiz-adv-x="1017" 
d="M78 1393h862q33 0 47 -13t14 -45v-159q0 -32 -14.5 -46t-46.5 -14h-262v-1055q0 -33 -12.5 -47t-44.5 -14h-222q-32 0 -45.5 14t-13.5 47v1055h-262q-33 0 -47.5 14t-14.5 46v159q0 32 14.5 45t47.5 13z" />
    <glyph glyph-name="U" unicode="U" horiz-adv-x="1271" 
d="M451 1331v-938q0 -67 51.5 -100t132.5 -33t133.5 33t52.5 100v938q0 33 14 47.5t46 14.5h221q32 0 44.5 -14.5t12.5 -47.5v-997q0 -69 -28.5 -129.5t-88 -111t-164 -80t-243.5 -29.5t-243 29.5t-163 80t-87.5 111t-28.5 129.5v997q0 33 13.5 47.5t45.5 14.5h221
q32 0 45 -14.5t13 -47.5z" />
    <glyph glyph-name="V" unicode="V" horiz-adv-x="1159" 
d="M690 0h-221q-32 0 -49.5 14.5t-26.5 46.5l-370 1270q-19 62 45 62h241q56 0 72 -62l154 -573q14 -51 26.5 -134.5t18.5 -141.5l6 -58q26 219 57 334l156 573q8 31 24 46.5t47 15.5h222q64 0 45 -62l-371 -1270q-9 -32 -26.5 -46.5t-49.5 -14.5z" />
    <glyph glyph-name="W" unicode="W" horiz-adv-x="1751" 
d="M1067 1331l139 -571q25 -101 35 -221q19 148 37 219l143 573q16 62 72 62h193q61 0 45 -62l-320 -1270q-14 -61 -76 -61h-215q-51 0 -67 61l-148 590q-17 73 -28 207q-12 -124 -31 -209l-148 -588q-14 -61 -75 -61h-215q-52 0 -68 61l-320 1270q-16 62 46 62h225
q31 0 47 -15.5t24 -46.5l140 -573q6 -28 13.5 -68.5t13 -74.5t6.5 -40q12 85 36 183l146 573q8 31 24 46.5t47 15.5h207q56 0 72 -62z" />
    <glyph glyph-name="X" unicode="X" horiz-adv-x="1196" 
d="M776 719l377 -658q15 -25 7.5 -43t-38.5 -18h-254q-53 0 -86 61l-209 363l-182 -363q-30 -61 -86 -61h-237q-29 0 -34.5 23.5t9.5 48.5l360 651l-344 602q-17 26 -11.5 47t36.5 21h254q54 0 88 -62l186 -327l174 327q32 62 88 62h234q31 0 38 -18t-9 -44z" />
    <glyph glyph-name="Y" unicode="Y" horiz-adv-x="1142" 
d="M391 1331l146 -407q12 -36 34 -123q17 69 41 123l172 407q12 31 27.5 46.5t44.5 15.5h217q33 0 45.5 -16.5t-0.5 -45.5l-377 -815v-455q0 -33 -12.5 -47t-44.5 -14h-221q-32 0 -46 14.5t-14 46.5v414l-378 856q-12 28 -0.5 45t43.5 17h249q54 0 74 -62z" />
    <glyph glyph-name="Z" unicode="Z" horiz-adv-x="1011" 
d="M147 1393h736q33 0 47 -13t14 -45v-159q0 -22 -12 -46l-475 -854h463q33 0 47 -12.5t14 -44.5v-160q0 -32 -14 -45.5t-47 -13.5h-807q-33 0 -47.5 13.5t-14.5 45.5v160q0 24 10 41l478 856h-392q-32 0 -46.5 14t-14.5 46v159q0 32 14 45t47 13z" />
    <glyph glyph-name="bracketleft" unicode="[" horiz-adv-x="833" 
d="M102 -371v1741q0 33 14 47.5t46 14.5h508q33 0 47 -13t14 -45v-160q0 -32 -14 -45.5t-47 -13.5h-230v-1311h230q33 0 47 -13.5t14 -45.5v-160q0 -32 -14 -44.5t-47 -12.5h-508q-32 0 -46 14.5t-14 46.5z" />
    <glyph glyph-name="backslash" unicode="\" horiz-adv-x="747" 
d="M395 -242l-391 1612q-16 62 47 62h232q31 0 46 -14.5t23 -47.5l391 -1612q7 -30 -5.5 -45.5t-41.5 -15.5h-231q-32 0 -47 14t-23 47z" />
    <glyph glyph-name="bracketright" unicode="]" horiz-adv-x="833" 
d="M731 1370v-1741q0 -33 -13.5 -47t-45.5 -14h-508q-33 0 -47.5 12.5t-14.5 44.5v160q0 32 14.5 45.5t47.5 13.5h229v1311h-229q-33 0 -47.5 13.5t-14.5 45.5v160q0 32 14.5 45t47.5 13h508q32 0 45.5 -14.5t13.5 -47.5z" />
    <glyph glyph-name="asciicircum" unicode="^" horiz-adv-x="1200" 
d="M764 604l-166 471l-164 -471q-10 -32 -23.5 -46.5t-43.5 -14.5h-201q-35 0 -53 16t-7 45l310 733q8 20 13 29.5t18.5 18t33.5 8.5h236q20 0 33.5 -8.5t18.5 -18t13 -29.5l310 -733q11 -29 -7 -45t-53 -16h-201q-30 0 -43.5 14.5t-23.5 46.5z" />
    <glyph glyph-name="underscore" unicode="_" horiz-adv-x="956" 
d="M102 -141h752q33 0 47 -13t14 -45v-149q0 -32 -14.5 -46t-46.5 -14h-752q-32 0 -46.5 14t-14.5 46v149q0 32 14 45t47 13z" />
    <glyph glyph-name="grave" unicode="`" horiz-adv-x="626" 
d="M231 1182l-141 207q-19 26 -10 43.5t41 17.5h219q58 0 84 -61l82 -189q25 -59 -33 -59h-162q-53 0 -80 41z" />
    <glyph glyph-name="a" unicode="a" horiz-adv-x="1069" 
d="M111 707v24q0 309 434 309q225 0 328.5 -79t103.5 -230v-670q0 -33 -13.5 -47t-45.5 -14h-189q-32 0 -43 13t-16 48l-4 31q-130 -108 -287 -108q-147 0 -224 76t-77 186v88q0 110 87.5 187t240.5 77h249v113q0 49 -26.5 71.5t-89.5 22.5q-66 0 -94.5 -19t-28.5 -65v-14
q0 -32 -14 -46t-46 -14h-186q-32 0 -45.5 14t-13.5 46zM467 238q81 0 188 75v68h-188q-70 0 -70 -64v-26q0 -53 70 -53z" />
    <glyph glyph-name="b" unicode="b" horiz-adv-x="1122" 
d="M358 0h-196q-32 0 -46 14.5t-14 46.5v1309q0 33 14 47.5t46 14.5h211q32 0 44.5 -14.5t12.5 -47.5v-436q134 106 307 106q152 0 227.5 -82.5t75.5 -232.5v-426q0 -150 -75.5 -232.5t-227.5 -82.5q-173 0 -315 112l-4 -35q-3 -33 -16 -47t-44 -14zM713 350v324
q0 20 -2 31.5t-8.5 26t-24 21.5t-45.5 7q-92 0 -203 -84v-328q111 -84 203 -84q28 0 45.5 7t24 21.5t8.5 26t2 31.5z" />
    <glyph glyph-name="c" unicode="c" horiz-adv-x="1019" 
d="M526 1040q225 0 334 -83.5t109 -235.5v-31q0 -32 -14 -45.5t-46 -13.5h-194q-32 0 -46 13.5t-14 45.5v6q0 50 -28.5 69t-94.5 19t-94 -19t-28 -69v-366q0 -50 28 -70t94 -20t94.5 20t28.5 70v24q0 32 14 46t46 14h194q32 0 46 -14t14 -46v-51q0 -151 -110 -235t-335 -84
t-333.5 83.5t-108.5 235.5v418q0 151 109.5 235t334.5 84z" />
    <glyph glyph-name="d" unicode="d" horiz-adv-x="1122" 
d="M705 61l-5 35q-142 -112 -315 -112q-152 0 -227.5 82.5t-75.5 232.5v426q0 150 75.5 232.5t227.5 82.5q168 0 307 -106v436q0 33 13 47.5t45 14.5h211q32 0 45.5 -14.5t13.5 -47.5v-1309q0 -33 -13.5 -47t-45.5 -14h-197q-31 0 -43.5 13.5t-15.5 47.5zM410 674v-324
q0 -20 1.5 -31.5t8.5 -26t24 -21.5t45 -7q86 0 203 84v328q-117 84 -203 84q-28 0 -45 -7t-24 -21.5t-8.5 -26t-1.5 -31.5z" />
    <glyph glyph-name="e" unicode="e" horiz-adv-x="1030" 
d="M954 721v-227q0 -29 -13 -42.5t-42 -13.5h-498v-123q0 -46 29.5 -68t93.5 -22q125 0 125 90v2q0 32 14 46t46 14h176q32 0 45.5 -14t13.5 -46v-14q0 -154 -99 -236.5t-321 -82.5q-225 0 -333.5 83.5t-108.5 235.5v418q0 152 108.5 235.5t333.5 83.5q430 0 430 -319z
M401 707v-60h248v60q0 92 -125 92q-123 0 -123 -92z" />
    <glyph glyph-name="f" unicode="f" horiz-adv-x="741" 
d="M190 1020h3v100q0 150 118.5 235t345.5 85h23q32 0 46.5 -14t14.5 -46v-145q0 -32 -14.5 -46.5t-46.5 -14.5h-23q-137 0 -137 -91v-63h146q33 0 47 -12.5t14 -44.5v-140q0 -32 -14 -45.5t-47 -13.5h-146v-703q0 -33 -12.5 -47t-44.5 -14h-211q-32 0 -45.5 14t-13.5 47
v703h-103q-32 0 -45.5 13.5t-13.5 45.5v125q0 31 12.5 43t46.5 17z" />
    <glyph glyph-name="g" unicode="g" horiz-adv-x="1122" 
d="M385 -16q-152 0 -227.5 82.5t-75.5 232.5v426q0 150 75.5 232.5t227.5 82.5q173 0 317 -114l5 37q5 35 16 48t43 13h195q32 0 45.5 -14t13.5 -47v-1051q0 -150 -119 -235t-346 -85h-293q-32 0 -46.5 14t-14.5 46v145q0 32 14.5 47t46.5 15h293q137 0 137 90v139
q-143 -104 -307 -104zM410 674v-324q0 -20 1.5 -31.5t8.5 -26t24 -21.5t45 -7q86 0 203 84v328q-117 84 -203 84q-28 0 -45 -7t-24 -21.5t-8.5 -26t-1.5 -31.5z" />
    <glyph glyph-name="h" unicode="h" horiz-adv-x="1132" 
d="M430 1370v-432q129 102 309 102q138 0 219.5 -79t81.5 -205v-695q0 -33 -13.5 -47t-45.5 -14h-207q-32 0 -46.5 14.5t-14.5 46.5v611q0 50 -15 69t-63 19q-97 0 -205 -82v-617q0 -33 -12.5 -47t-44.5 -14h-211q-32 0 -46 14.5t-14 46.5v1309q0 33 14 47.5t46 14.5h211
q32 0 44.5 -14.5t12.5 -47.5z" />
    <glyph glyph-name="i" unicode="i" 
d="M430 963v-902q0 -33 -12.5 -47t-44.5 -14h-211q-32 0 -46 14.5t-14 46.5v902q0 32 14 46.5t46 14.5h211q32 0 44.5 -14t12.5 -47zM430 1370v-170q0 -33 -12.5 -46t-44.5 -13h-211q-32 0 -46 13.5t-14 45.5v170q0 33 14 47.5t46 14.5h211q32 0 44.5 -14.5t12.5 -47.5z" />
    <glyph glyph-name="j" unicode="j" 
d="M430 1370v-170q0 -33 -12.5 -46t-44.5 -13h-211q-32 0 -46 13.5t-14 45.5v170q0 33 14 47.5t46 14.5h211q32 0 44.5 -14.5t12.5 -47.5zM430 963v-1051q0 -150 -119 -235t-346 -85h-22q-33 0 -47.5 14t-14.5 46v145q0 62 62 62h22q137 0 137 90v1014q0 33 13 47t45 14h211
q32 0 45.5 -14t13.5 -47z" />
    <glyph glyph-name="k" unicode="k" horiz-adv-x="1046" 
d="M723 582l321 -521q16 -23 8.5 -42t-38.5 -19h-228q-47 0 -86 61l-237 388h-33v-388q0 -33 -12.5 -47t-44.5 -14h-211q-32 0 -46 14.5t-14 46.5v1309q0 33 14 47.5t46 14.5h211q32 0 44.5 -14.5t12.5 -47.5v-676h33l211 269q49 61 96 61h227q31 0 39 -19.5t-10 -41.5z" />
    <glyph glyph-name="l" unicode="l" 
d="M430 1370v-1309q0 -33 -12.5 -47t-44.5 -14h-211q-32 0 -46 14.5t-14 46.5v1309q0 33 14 47.5t46 14.5h211q32 0 44.5 -14.5t12.5 -47.5z" />
    <glyph glyph-name="m" unicode="m" horiz-adv-x="1718" 
d="M162 1024h196q32 0 44.5 -13t15.5 -46l2 -35q129 110 307 110q90 0 158 -36t104 -99q30 26 50.5 41.5t64.5 41.5t100 39t121 13q138 0 219.5 -79t81.5 -205v-695q0 -33 -13.5 -47t-45.5 -14h-207q-32 0 -47 14.5t-15 46.5v611q0 50 -15 69t-62 19q-54 0 -106 -25.5
t-87 -56.5v-617q0 -33 -13.5 -47t-45.5 -14h-207q-32 0 -47 14.5t-15 46.5v611q0 50 -15 69t-62 19q-54 0 -106 -25.5t-87 -56.5v-617q0 -33 -12.5 -47t-44.5 -14h-211q-32 0 -46 14.5t-14 46.5v904q0 32 14 45.5t46 13.5z" />
    <glyph glyph-name="n" unicode="n" horiz-adv-x="1132" 
d="M162 1024h196q32 0 44.5 -13t15.5 -46l4 -35q133 110 317 110q138 0 219.5 -79t81.5 -205v-695q0 -33 -13.5 -47t-45.5 -14h-207q-32 0 -46.5 14.5t-14.5 46.5v611q0 50 -15 69t-63 19q-97 0 -205 -82v-617q0 -33 -12.5 -47t-44.5 -14h-211q-32 0 -46 14.5t-14 46.5v904
q0 32 14 45.5t46 13.5z" />
    <glyph glyph-name="o" unicode="o" horiz-adv-x="1101" 
d="M82 303v418q0 149 120.5 234t348.5 85t348.5 -85t120.5 -234v-418q0 -149 -120.5 -234t-348.5 -85t-348.5 85t-120.5 234zM692 332v362q0 90 -141 90t-141 -90v-362q0 -92 141 -92t141 92z" />
    <glyph glyph-name="p" unicode="p" horiz-adv-x="1122" 
d="M162 1024h196q31 0 44 -14t16 -47l4 -35q40 30 72.5 50t100.5 41t142 21q152 0 227.5 -82.5t75.5 -232.5v-426q0 -150 -75.5 -232.5t-227.5 -82.5q-169 0 -307 104v-434q0 -33 -12.5 -47.5t-44.5 -14.5h-211q-32 0 -46 14.5t-14 47.5v1309q0 32 14 46.5t46 14.5zM713 350
v324q0 20 -2 31.5t-8.5 26t-24 21.5t-45.5 7q-92 0 -203 -84v-328q111 -84 203 -84q28 0 45.5 7t24 21.5t8.5 26t2 31.5z" />
    <glyph glyph-name="q" unicode="q" horiz-adv-x="1122" 
d="M700 928l5 35q3 34 15.5 47.5t43.5 13.5h197q32 0 45.5 -14t13.5 -47v-1309q0 -33 -13.5 -47.5t-45.5 -14.5h-211q-32 0 -45 14.5t-13 47.5v434q-143 -104 -307 -104q-152 0 -227.5 82.5t-75.5 232.5v426q0 150 75.5 232.5t227.5 82.5q74 0 141.5 -21t100.5 -41t73 -50z
M410 674v-324q0 -20 1.5 -31.5t8.5 -26t24 -21.5t45 -7q86 0 203 84v328q-117 84 -203 84q-28 0 -45 -7t-24 -21.5t-8.5 -26t-1.5 -31.5z" />
    <glyph glyph-name="r" unicode="r" horiz-adv-x="784" 
d="M707 1040q33 0 47 -13.5t14 -45.5v-160q0 -31 -14 -44.5t-47 -16.5q-171 -16 -277 -113v-586q0 -33 -12.5 -47t-44.5 -14h-211q-32 0 -46 14.5t-14 46.5v904q0 32 14 45.5t46 13.5h196q32 0 44.5 -13t15.5 -46l6 -58q114 133 283 133z" />
    <glyph glyph-name="s" unicode="s" horiz-adv-x="972" 
d="M610 721v29q0 65 -112 65q-111 0 -111 -65v-11q0 -38 43 -55l287 -102q205 -73 205 -222v-98q0 -53 -24.5 -101t-74 -88.5t-135.5 -64.5t-199 -24t-198.5 24t-134 65t-72 88.5t-23.5 100.5v43q0 29 12.5 42t43.5 13h188q30 0 42.5 -12.5t12.5 -42.5v-29q0 -65 129 -65
q132 0 132 65v19q0 20 -15.5 32t-64.5 31l-289 111q-61 23 -111.5 87.5t-50.5 135.5v58q0 54 21 103t66.5 92t128.5 69t194 26q90 0 161.5 -17.5t117 -45.5t75.5 -66.5t42.5 -78t12.5 -82.5v-29q0 -31 -12.5 -44t-44.5 -13h-186q-31 0 -43.5 13t-12.5 44z" />
    <glyph glyph-name="t" unicode="t" horiz-adv-x="759" 
d="M498 1020h166q33 0 47 -12.5t14 -44.5v-140q0 -32 -14 -45.5t-47 -13.5h-166v-408q0 -49 32.5 -69.5t98.5 -20.5h49q32 0 46.5 -14.5t14.5 -46.5v-146q0 -32 -14 -45.5t-47 -13.5h-103q-225 0 -315 76t-90 243v445h-90q-32 0 -46 13.5t-14 45.5v125q0 31 13 43t47 17
l88 12h2v186q0 33 13.5 47.5t45.5 14.5h211q32 0 45 -14.5t13 -47.5v-186z" />
    <glyph glyph-name="u" unicode="u" horiz-adv-x="1120" 
d="M702 59l-4 33q-127 -108 -305 -108q-138 0 -219.5 79t-81.5 205v695q0 32 14 46.5t46 14.5h206q32 0 47 -14.5t15 -46.5v-611q0 -50 15 -69t63 -19q91 0 192 80v619q0 33 13 47t45 14h210q32 0 46 -14.5t14 -46.5v-904q0 -32 -14 -45.5t-46 -13.5h-196q-31 0 -43 12.5
t-17 46.5z" />
    <glyph glyph-name="v" unicode="v" horiz-adv-x="1011" 
d="M616 0h-241q-30 0 -40 10.5t-22 44.5l-299 908q-10 31 7.5 46t52.5 15h217q30 0 44.5 -15t22.5 -46l111 -365q21 -70 37 -215q17 133 45 213l127 367q10 32 23.5 46.5t43.5 14.5h193q35 0 52 -15t7 -46l-319 -908q-8 -24 -13 -33.5t-16.5 -15.5t-32.5 -6z" />
    <glyph glyph-name="w" unicode="w" horiz-adv-x="1523" 
d="M1509 963l-260 -908q-10 -34 -20.5 -44.5t-40.5 -10.5h-252q-30 0 -43 12.5t-19 42.5l-83 391q-19 82 -19 113q-1 -2 -5 -20.5t-10.5 -46t-11.5 -46.5l-116 -391q-8 -31 -20 -43t-42 -12h-245q-30 0 -42 11.5t-20 43.5l-246 908q-9 31 8.5 46t51.5 15h200q30 0 45 -15
t23 -46l119 -455q4 -20 8 -45t5.5 -41.5t2.5 -18.5q0 12 25 105l127 455q8 31 22.5 46t44.5 15h199q55 0 68 -61l98 -455l18 -105q14 71 23 105l115 455q8 31 22.5 46t44.5 15h166q34 0 51 -15t8 -46z" />
    <glyph glyph-name="x" unicode="x" horiz-adv-x="983" 
d="M662 512l299 -451q16 -23 8 -42t-39 -19h-228q-47 0 -86 61l-153 232l-144 -232q-39 -61 -86 -61h-200q-31 0 -39 19t8 42l307 463l-289 439q-18 25 -10.5 43t39.5 18h227q30 0 49.5 -15.5t39.5 -45.5l145 -220l131 220q35 61 88 61h201q31 0 38.5 -18t-10.5 -43z" />
    <glyph glyph-name="y" unicode="y" horiz-adv-x="1011" 
d="M350 963l117 -371q8 -27 14.5 -56.5t10.5 -52.5t6.5 -42.5t4 -31.5t1.5 -14q2 13 19.5 82t29.5 105l127 381q10 32 24 46.5t44 14.5h190q34 0 51.5 -16t7.5 -45l-444 -1309q-9 -29 -24 -45.5t-44 -16.5h-151q-34 0 -51.5 16t-8.5 46l88 311l-348 998q-10 29 8 45t52 16
h209q30 0 43.5 -14.5t23.5 -46.5z" />
    <glyph glyph-name="z" unicode="z" horiz-adv-x="907" 
d="M150 1024h624q33 0 47.5 -12.5t14.5 -44.5v-148q0 -25 -13 -45l-372 -508h364q33 0 47.5 -12.5t14.5 -44.5v-150q0 -32 -14.5 -45.5t-47.5 -13.5h-702q-33 0 -47.5 13.5t-14.5 45.5v150q0 23 12 43l369 506h-282q-33 0 -47.5 13.5t-14.5 45.5v150q0 32 14.5 44.5
t47.5 12.5z" />
    <glyph glyph-name="braceleft" unicode="{" horiz-adv-x="923" 
d="M293 733v397q0 150 119 235t346 85h22q33 0 47.5 -13.5t14.5 -45.5v-146q0 -32 -15 -46.5t-47 -14.5h-22q-65 0 -96 -20.5t-31 -69.5v-396q0 -134 -107 -188q107 -57 107 -188v-412q0 -49 31 -69.5t96 -20.5h22q62 0 62 -62v-145q0 -32 -14.5 -45.5t-47.5 -13.5h-22
q-227 0 -346 85t-119 234v414q0 49 -31 69.5t-96 20.5h-2q-32 0 -47 14.5t-15 46.5v144q0 32 15 46.5t47 14.5h2q65 0 96 20.5t31 69.5z" />
    <glyph glyph-name="bar" unicode="|" horiz-adv-x="583" 
d="M461 1370v-1741q0 -33 -13 -47t-45 -14h-221q-32 0 -45.5 14t-13.5 47v1741q0 33 13.5 47.5t45.5 14.5h221q32 0 45 -14.5t13 -47.5z" />
    <glyph glyph-name="braceright" unicode="}" horiz-adv-x="923" 
d="M631 1130v-397q0 -49 31 -69.5t96 -20.5h2q32 0 46.5 -14.5t14.5 -46.5v-144q0 -32 -14.5 -46.5t-46.5 -14.5h-2q-65 0 -96 -20.5t-31 -69.5v-414q0 -149 -119 -234t-346 -85h-23q-33 0 -47 13.5t-14 45.5v145q0 32 14.5 47t46.5 15h23q65 0 96 20.5t31 69.5v412
q0 132 106 188q-106 53 -106 188v396q0 49 -31 69.5t-96 20.5h-23q-32 0 -46.5 14.5t-14.5 46.5v146q0 32 14 45.5t47 13.5h23q227 0 346 -85t119 -235z" />
    <glyph glyph-name="asciitilde" unicode="~" horiz-adv-x="1048" 
d="M373 518q-34 0 -45 -55l-2 -8q-7 -32 -21.5 -43t-44.5 -11h-106q-56 0 -50 70l11 115q6 63 35.5 105.5t66.5 59.5t78 17q73 0 123 -23l182 -81q58 -23 80 -23q13 0 23.5 14.5t15.5 34.5l2 8q8 31 21.5 42.5t43.5 11.5h107q61 0 51 -70l-12 -94q-13 -99 -62.5 -150
t-117.5 -51q-69 0 -134 29l-182 84q-40 18 -63 18z" />
    <glyph glyph-name="exclamdown" unicode="&#xa1;" horiz-adv-x="589" 
d="M123 225l33 348q3 34 14.5 48t42.5 14h158q31 0 43.5 -14t15.5 -48l33 -348v-532q0 -33 -14 -47.5t-46 -14.5h-223q-32 0 -44.5 14.5t-12.5 47.5v532zM127 795v170q0 33 12.5 46t44.5 13h222q32 0 45.5 -13.5t13.5 -45.5v-170q0 -33 -13.5 -47.5t-45.5 -14.5h-222
q-32 0 -44.5 14.5t-12.5 47.5z" />
    <glyph glyph-name="cent" unicode="&#xa2;" horiz-adv-x="1132" 
d="M745 1331v-125q265 -60 265 -301v-31q0 -32 -14 -45.5t-46 -13.5h-194q-32 0 -46 13.5t-14 45.5v7q0 50 -28.5 69t-94.5 19t-94 -19t-28 -69v-367q0 -50 28 -70t94 -20t94.5 20t28.5 70v25q0 32 14 45.5t46 13.5h194q32 0 46 -13.5t14 -45.5v-52q0 -241 -265 -301v-125
q0 -33 -12.5 -47t-44.5 -14h-211q-32 0 -45.5 14t-13.5 47v117q-150 26 -222.5 105.5t-72.5 203.5v418q0 124 72.5 202.5t222.5 104.5v119q0 33 13.5 47.5t45.5 14.5h211q32 0 44.5 -14.5t12.5 -47.5z" />
    <glyph glyph-name="sterling" unicode="&#xa3;" horiz-adv-x="1431" 
d="M633 813h180q33 0 47 -12.5t14 -44.5v-150q0 -32 -14 -45.5t-47 -13.5h-180v-281h266q90 0 90 137v23q0 32 15 46.5t47 14.5h198q32 0 46 -14.5t14 -46.5v-23q0 -113 -22 -192.5t-65.5 -125t-100 -65.5t-132.5 -20h-805q-33 0 -47 13.5t-14 45.5v150q0 32 14 44.5
t47 12.5h111v281h-111q-33 0 -47 13.5t-14 45.5v150q0 32 14 44.5t47 12.5h111v246q0 69 25.5 129.5t79.5 111t150.5 80t225.5 29.5t226 -29.5t151.5 -80t80.5 -111t26 -129.5v-74q0 -33 -13 -47t-45 -14h-205q-32 0 -45.5 14t-13.5 47v14q0 67 -44 100.5t-114 33.5
q-69 0 -108 -33t-39 -101v-186z" />
    <glyph glyph-name="currency" unicode="&#xa4;" horiz-adv-x="1361" 
d="M184 647h47v90h-47q-32 0 -46.5 14t-14.5 46v88q0 32 14 44.5t47 12.5h47v117q0 70 25.5 129.5t81 110.5t157 80.5t240.5 29.5t240.5 -29.5t157 -80.5t81 -110.5t25.5 -129.5v-94q0 -33 -12.5 -47.5t-44.5 -14.5h-211q-32 0 -46 14.5t-14 47.5v34q0 68 -46.5 101
t-125.5 33t-124.5 -33t-45.5 -101v-57h150q33 0 47 -12.5t14 -44.5v-88q0 -32 -14.5 -46t-46.5 -14h-150v-90h150q33 0 47 -12.5t14 -44.5v-88q0 -32 -14.5 -46t-46.5 -14h-150v-49q0 -68 45.5 -100.5t124.5 -32.5t125.5 32.5t46.5 100.5v66q0 32 14 46.5t46 14.5h211
q32 0 44.5 -14t12.5 -47v-125q0 -70 -25.5 -129.5t-81 -110.5t-157 -80.5t-240.5 -29.5t-240.5 29.5t-157 80.5t-81 110.5t-25.5 129.5v108h-47q-32 0 -46.5 14t-14.5 46v88q0 32 14 44.5t47 12.5z" />
    <glyph glyph-name="yen" unicode="&#xa5;" horiz-adv-x="1355" 
d="M1110 442h-262v-381q0 -33 -12.5 -47t-44.5 -14h-222q-32 0 -45.5 14t-13.5 47v381h-262q-33 0 -47.5 14t-14.5 46v88q0 32 14.5 44.5t47.5 12.5h186l-41 90h-145q-33 0 -47.5 14t-14.5 46v88q0 32 14.5 44.5t47.5 12.5h55l-172 389q-12 28 -0.5 45t43.5 17h250
q54 0 74 -62l145 -407q16 -47 35 -123q17 69 41 123l172 407q12 31 27.5 46.5t44.5 15.5h217q33 0 45.5 -16.5t-0.5 -45.5l-181 -389h66q33 0 47 -12.5t14 -44.5v-88q0 -32 -14.5 -46t-46.5 -14h-160l-43 -90h203q33 0 47 -12.5t14 -44.5v-88q0 -32 -14.5 -46t-46.5 -14z
" />
    <glyph glyph-name="brokenbar" unicode="&#xa6;" 
d="M430 1331v-626q0 -33 -12.5 -47.5t-44.5 -14.5h-211q-32 0 -46 14.5t-14 47.5v626q0 33 14 47.5t46 14.5h211q32 0 44.5 -14.5t12.5 -47.5zM430 256v-627q0 -33 -12.5 -47t-44.5 -14h-211q-32 0 -46 14.5t-14 46.5v627q0 32 14 46.5t46 14.5h211q32 0 44.5 -14t12.5 -47z
" />
    <glyph glyph-name="section" unicode="&#xa7;" horiz-adv-x="1132" 
d="M975 582v-138q0 -32 -14 -45.5t-46 -13.5h-184q-32 0 -45.5 13.5t-13.5 45.5v105q0 54 -60 72l-286 90q-203 63 -203 268v106q0 146 111 235t333 89q443 0 443 -309v-15q0 -32 -14 -45.5t-46 -13.5h-184q-32 0 -45.5 13.5t-13.5 45.5v31q0 49 -30.5 66.5t-98.5 17.5
t-100 -18.5t-32 -67.5v-117q0 -40 80 -65l250 -80q89 -29 144 -101t55 -169zM158 420v137q0 32 13.5 45.5t45.5 13.5h184q32 0 46 -13.5t14 -45.5v-104q0 -54 59 -72l287 -90q203 -63 203 -268v-107q0 -146 -111.5 -235t-333.5 -89q-442 0 -442 310v14q0 32 13.5 45.5
t45.5 13.5h185q32 0 45.5 -13.5t13.5 -45.5v-31q0 -49 30.5 -66.5t98.5 -17.5t99.5 18.5t31.5 67.5v117q0 41 -80 66l-250 80q-89 29 -143.5 101t-54.5 169z" />
    <glyph glyph-name="dieresis" unicode="&#xa8;" horiz-adv-x="833" 
d="M377 1389v-189q0 -32 -13 -45.5t-45 -13.5h-122q-32 0 -46 13.5t-14 45.5v189q0 32 14 46.5t46 14.5h122q32 0 45 -14t13 -47zM694 1389v-189q0 -33 -12.5 -46t-44.5 -13h-123q-32 0 -45.5 13.5t-13.5 45.5v189q0 33 13.5 47t45.5 14h123q32 0 44.5 -14t12.5 -47z" />
    <glyph glyph-name="copyright" unicode="&#xa9;" horiz-adv-x="1642" 
d="M1520 885v-375q0 -58 -5.5 -106.5t-24 -104.5t-48.5 -99t-83.5 -85t-125.5 -69.5t-177 -44.5t-235 -17t-235 17t-177 44.5t-125 69.5t-83.5 85t-48.5 99.5t-23.5 104.5t-5.5 106v375q0 58 5.5 106t23.5 104t48.5 99t83.5 85t125 69.5t177 44t235 16.5t235 -16.5t177 -44
t125.5 -69.5t83.5 -85t48.5 -99t24 -104t5.5 -106zM1284 463v469q0 131 -113.5 205.5t-349.5 74.5t-349.5 -75.5t-113.5 -206.5v-465q0 -131 113.5 -207t349.5 -76t349.5 75t113.5 206zM825 1116q200 0 285.5 -74t85.5 -225v-12q0 -32 -13.5 -46t-45.5 -14h-170
q-32 0 -46 14t-14 46v6q0 88 -82 88t-82 -88v-227q0 -90 82 -90t82 90v18q0 32 14 46t46 14h170q32 0 45.5 -14t13.5 -46v-29q0 -151 -86.5 -225t-286.5 -74q-198 0 -284 74t-86 225v244q0 151 86.5 225t285.5 74z" />
    <glyph glyph-name="ordfeminine" unicode="&#xaa;" horiz-adv-x="741" 
d="M104 1208v13q0 91 70 139.5t209 48.5q276 0 276 -199v-387q0 -43 -45 -43h-141q-6 0 -10.5 0.5t-8 1.5t-6 2t-5 4t-4 4t-3.5 6t-2.5 7t-2.5 8.5t-3 9.5l-2 8q-74 -61 -158 -61q-93 0 -139.5 47t-46.5 115v49q0 68 58 115t157 47h121v69q0 29 -41 29t-41 -24v-9
q0 -23 -10.5 -32t-32.5 -9h-143q-25 0 -35.5 9t-10.5 32zM352 940q26 0 66 33v31h-70q-24 0 -24 -23v-18q0 -23 28 -23z" />
    <glyph glyph-name="guillemotleft" unicode="&#xab;" horiz-adv-x="1273" 
d="M1090 623l-185 -121l185 -119q20 -13 30.5 -21.5t20.5 -25.5t10 -37v-205q0 -32 -19.5 -45t-41.5 2l-388 268q-55 35 -55 82v203q0 45 55 82l388 268q25 17 43 3.5t18 -46.5v-204q0 -20 -10 -36.5t-19 -24t-32 -23.5zM565 623l-184 -121l184 -119q20 -13 31 -21.5
t21 -25.5t10 -37v-205q0 -32 -20 -45t-42 2l-387 268q-55 35 -55 82v203q0 45 55 82l387 268q25 17 43.5 3.5t18.5 -46.5v-204q0 -20 -10.5 -36.5t-19.5 -24t-32 -23.5z" />
    <glyph glyph-name="logicalnot" unicode="&#xac;" horiz-adv-x="839" 
d="M150 662q0 113 78 191.5t190 78.5t191 -79t79 -191t-78.5 -190.5t-191.5 -78.5q-112 0 -190 78t-78 191z" />
    <glyph glyph-name="uni00AD" unicode="&#xad;" horiz-adv-x="874" 
d="M164 723h547q33 0 47 -12.5t14 -44.5v-150q0 -32 -14 -45.5t-47 -13.5h-547q-33 0 -47.5 13.5t-14.5 45.5v150q0 32 14.5 44.5t47.5 12.5z" />
    <glyph glyph-name="registered" unicode="&#xae;" horiz-adv-x="1345" 
d="M1223 1047v-385q0 -37 -4.5 -68.5t-18.5 -69.5t-37.5 -69t-65.5 -61t-98 -50t-139 -32.5t-186 -12.5t-186 12.5t-139.5 32.5t-98.5 50t-66 61t-38 69t-18.5 69.5t-4.5 68.5v385q0 37 4.5 68.5t18.5 69.5t38 68.5t66 60.5t98.5 50t139.5 32.5t186 12.5t186 -12.5
t139 -32.5t98 -50t65.5 -60.5t37.5 -68.5t18.5 -69.5t4.5 -68.5zM1010 641v426q0 51 -28 84t-104 53.5t-204 20.5q-187 0 -262.5 -41t-75.5 -119v-422q0 -78 75.5 -119t262.5 -41q128 0 204 20.5t104 53.5t28 84zM944 928q0 -99 -65 -144l63 -168q6 -19 -5 -31t-36 -12h-133
q-12 0 -19.5 5.5t-10.5 12.5t-9 25l-51 132h-39v-132q0 -43 -41 -43h-135q-41 0 -41 43v480q0 22 9.5 31.5t31.5 9.5h248q72 0 120.5 -15.5t72 -43.5t32 -56t8.5 -64v-30zM686 983h-47v-80h47q4 0 10.5 1.5t17.5 9.5t11 20v16q0 33 -39 33z" />
    <glyph glyph-name="macron" unicode="&#xaf;" horiz-adv-x="821" 
d="M184 1393h453q33 0 47 -13t14 -45v-129q0 -32 -14 -45.5t-47 -13.5h-453q-33 0 -47 13.5t-14 45.5v129q0 32 14 45t47 13z" />
    <glyph glyph-name="degree" unicode="&#xb0;" horiz-adv-x="919" 
d="M102 973v192q0 120 82 182t277 62q193 0 274.5 -62t81.5 -182v-192q0 -120 -81.5 -182t-274.5 -62q-195 0 -277 62t-82 182zM543 985v170q0 45 -84 45q-82 0 -82 -45v-170q0 -47 82 -47q84 0 84 47z" />
    <glyph glyph-name="plusminus" unicode="&#xb1;" horiz-adv-x="1128" 
d="M430 485v164h-266q-33 0 -47.5 14t-14.5 46v149q0 32 14.5 44.5t47.5 12.5h266v166q0 33 12.5 47.5t44.5 14.5h150q32 0 45.5 -14.5t13.5 -47.5v-166h269q33 0 47 -12.5t14 -44.5v-149q0 -32 -14.5 -46t-46.5 -14h-269v-164q0 -33 -13.5 -47t-45.5 -14h-150
q-32 0 -44.5 14t-12.5 47zM164 313h801q33 0 47 -12.5t14 -44.5v-150q0 -32 -14 -45.5t-47 -13.5h-801q-33 0 -47.5 13.5t-14.5 45.5v150q0 32 14.5 44.5t47.5 12.5z" />
    <glyph glyph-name="twosuperior" unicode="&#xb2;" horiz-adv-x="808" 
d="M358 762h324q24 0 34.5 -8.5t10.5 -32.5v-115q0 -43 -45 -43h-532q-25 0 -35.5 10t-10.5 33v213q0 47 12.5 67.5t51.5 41.5l274 133q17 9 22 19.5t5 37.5v31q0 33 -23.5 49t-48.5 16t-47 -16t-22 -49v-39q0 -25 -9 -35t-32 -10h-162q-23 0 -33 10t-10 35v78
q0 42 17.5 79.5t53 70t98.5 52t146 19.5q159 0 239.5 -65.5t82.5 -155.5v-58q0 -95 -33 -144.5t-90 -80.5l-225 -114q-13 -4 -13 -15v-14z" />
    <glyph glyph-name="threesuperior" unicode="&#xb3;" horiz-adv-x="804" 
d="M322 1081h61q28 0 52 16.5t24 49.5v6q0 34 -18 50t-44 16t-44.5 -16t-18.5 -50v-8q0 -43 -43 -43h-162q-24 0 -33.5 10t-9.5 33v45q0 43 15 80t49 70t98 52t153 19q87 0 150 -18t96.5 -50t48.5 -68.5t15 -80.5v-84q0 -82 -78 -117q90 -52 90 -141v-82q0 -42 -16 -78.5
t-50.5 -68.5t-98.5 -50t-152 -18t-153.5 19t-101.5 52t-52.5 70.5t-16.5 79.5v45q0 24 9.5 33.5t33.5 9.5h160q25 0 35 -10t10 -33v-8q0 -33 21.5 -49t49.5 -16t51 16t23 49v10q0 34 -24.5 50t-53.5 16h-75q-46 0 -46 41v108q0 24 11 33.5t35 9.5z" />
    <glyph glyph-name="acute" unicode="&#xb4;" horiz-adv-x="626" 
d="M535 1389l-142 -207q-27 -41 -80 -41h-161q-58 0 -33 59l82 189q26 61 84 61h219q32 0 41 -17.5t-10 -43.5z" />
    <glyph glyph-name="uni00B5" unicode="&#xb5;" horiz-adv-x="1120" 
d="M702 59l-4 33q-127 -108 -292 -108h-3l17 -330q2 -32 -12 -47t-46 -15h-210q-32 0 -46 14.5t-14 47.5v1309q0 32 14 46.5t46 14.5h206q32 0 47 -14.5t15 -46.5v-611q0 -50 15 -69t63 -19q91 0 192 80v619q0 33 13 47t45 14h210q32 0 46 -14.5t14 -46.5v-904
q0 -32 -14 -45.5t-46 -13.5h-196q-32 0 -44.5 13t-15.5 46z" />
    <glyph glyph-name="paragraph" unicode="&#xb6;" horiz-adv-x="1466" 
d="M885 1331v-1677q0 -33 -13 -47.5t-45 -14.5h-221q-32 0 -45.5 14.5t-13.5 47.5v924h-29q-113 0 -192 19.5t-122.5 56.5t-62 83.5t-18.5 108.5v278q0 62 18.5 108.5t62 84t122.5 57t192 19.5h309q32 0 45 -14.5t13 -47.5zM1343 1331v-1677q0 -33 -12.5 -47.5t-44.5 -14.5
h-221q-32 0 -45.5 14.5t-13.5 47.5v1677q0 33 13.5 47.5t45.5 14.5h221q32 0 44.5 -14.5t12.5 -47.5z" />
    <glyph glyph-name="periodcentered" unicode="&#xb7;" horiz-adv-x="538" 
d="M436 662v-170q0 -33 -12.5 -46.5t-44.5 -13.5h-217q-32 0 -46 14t-14 46v170q0 32 14 46.5t46 14.5h217q32 0 44.5 -14t12.5 -47z" />
    <glyph glyph-name="cedilla" unicode="&#xb8;" horiz-adv-x="608" 
d="M315 -80h56q182 0 182 -172q0 -180 -182 -180h-256q-33 0 -47.5 13.5t-14.5 45.5v43q0 32 14.5 45t47.5 13h198q19 0 19 20q0 21 -19 21h-166q-95 0 -71 81l55 187q15 54 72 51l92 -6q27 -2 40.5 -20.5t4.5 -49.5z" />
    <glyph glyph-name="onesuperior" unicode="&#xb9;" horiz-adv-x="765" 
d="M127 1360l346 47q12 1 19.5 0t14.5 -11t7 -30v-608h127q24 0 33.5 -8.5t9.5 -32.5v-115q0 -23 -10 -33t-33 -10h-512q-26 0 -36.5 10t-10.5 33v115q0 24 10 32.5t37 8.5h131v422l-133 -15q-24 -3 -34.5 5t-10.5 32v115q0 21 10.5 30.5t34.5 12.5z" />
    <glyph glyph-name="ordmasculine" unicode="&#xba;" horiz-adv-x="774" 
d="M82 975v227q0 96 80 151.5t225 55.5q144 0 224.5 -55.5t80.5 -151.5v-227q0 -96 -80.5 -150.5t-224.5 -54.5q-145 0 -225 54.5t-80 150.5zM442 995v191q0 37 -55 37q-57 0 -57 -37v-191q0 -41 57 -41q55 0 55 41z" />
    <glyph glyph-name="guillemotright" unicode="&#xbb;" horiz-adv-x="1273" 
d="M709 397l184 121l-184 119q-20 13 -31 21.5t-21 25.5t-10 37v205q0 32 20 45t42 -2l387 -269q55 -35 55 -82v-202q0 -45 -55 -82l-387 -268q-25 -17 -43.5 -3.5t-18.5 46.5v204q0 20 10.5 36.5t19.5 24t32 23.5zM184 397l185 121l-185 119q-20 13 -30.5 21.5t-20.5 25.5
t-10 37v205q0 32 19.5 45t41.5 -2l387 -269q56 -36 56 -82v-202q0 -45 -56 -82l-387 -268q-25 -17 -43 -3.5t-18 46.5v204q0 20 10 36.5t19 24t32 23.5z" />
    <glyph glyph-name="onequarter" unicode="&#xbc;" horiz-adv-x="1890" 
d="M1526 793l-101 -404h129v404q0 43 43 43h168q24 0 33.5 -10t9.5 -33v-750q0 -23 -9.5 -33t-33.5 -10h-168q-43 0 -43 43v147h-346q-47 0 -47 43v95q0 10 13 69l98 396q10 43 53 43h168q43 0 33 -43zM127 1360l346 47q12 1 19.5 0t14.5 -11t7 -30v-608h127q24 0 33.5 -8.5
t9.5 -32.5v-115q0 -23 -10 -33t-33 -10h-512q-26 0 -36.5 10t-10.5 33v115q0 24 10 32.5t37 8.5h131v422l-133 -15q-24 -3 -34.5 5t-10.5 32v115q0 21 10.5 30.5t34.5 12.5zM1268 1450l-353 -1507q-5 -23 -15 -33t-34 -10h-176q-44 0 -35 43l353 1507q5 23 15.5 33t35.5 10
h174q45 0 35 -43z" />
    <glyph glyph-name="onehalf" unicode="&#xbd;" horiz-adv-x="1886" 
d="M1247 1450l-352 -1507q-5 -23 -15 -33t-34 -10h-176q-44 0 -35 43l352 1507q5 23 15.5 33t35.5 10h174q45 0 35 -43zM1436 199h323q24 0 34.5 -8.5t10.5 -32.5v-115q0 -43 -45 -43h-532q-25 0 -35 10t-10 33v213q0 47 12 68t51 41l275 133q17 9 21.5 19.5t4.5 37.5v31
q0 33 -23.5 49t-47.5 16q-25 0 -47.5 -16t-22.5 -49v-39q0 -25 -9 -35t-32 -10h-162q-23 0 -33 10t-10 35v78q0 90 78 155.5t238 65.5q159 0 239 -65.5t82 -155.5v-58q0 -95 -33 -144.5t-90 -80.5l-225 -115q-12 -4 -12 -14v-14zM127 1360l346 47q12 1 19.5 0t14.5 -11
t7 -30v-608h127q24 0 33.5 -8.5t9.5 -32.5v-115q0 -23 -10 -33t-33 -10h-512q-26 0 -36.5 10t-10.5 33v115q0 24 10 32.5t37 8.5h131v422l-133 -15q-24 -3 -34.5 5t-10.5 32v115q0 21 10.5 30.5t34.5 12.5z" />
    <glyph glyph-name="threequarters" unicode="&#xbe;" horiz-adv-x="1921" 
d="M322 1079h61q28 0 52 16.5t24 49.5v6q0 34 -18 50t-44 16t-44.5 -16t-18.5 -50v-8q0 -43 -43 -43h-162q-24 0 -33.5 10t-9.5 33v45q0 43 15 80t49 70t98 52t153 19q87 0 150 -18t96.5 -50t48.5 -68.5t15 -80.5v-84q0 -82 -78 -117q90 -52 90 -141v-82q0 -42 -16 -78.5
t-50.5 -68.5t-98.5 -50t-152 -18t-153.5 19t-101.5 52t-52.5 70.5t-16.5 79.5v45q0 24 9.5 33.5t33.5 9.5h160q25 0 35 -10t10 -33v-8q0 -34 21.5 -50t49.5 -16t51 16.5t23 49.5v10q0 34 -24.5 50t-53.5 16h-75q-46 0 -46 41v108q0 24 11 33.5t35 9.5zM1298 1450l-352 -1507
q-5 -23 -15 -33t-34 -10h-176q-44 0 -35 43l352 1507q5 23 16 33t36 10h174q47 0 34 -43zM1556 793l-100 -404h129v404q0 43 43 43h168q24 0 33.5 -10t9.5 -33v-750q0 -23 -9.5 -33t-33.5 -10h-168q-43 0 -43 43v147h-346q-47 0 -47 43v95q0 15 12 69l99 396q10 43 53 43
h168q42 0 32 -43z" />
    <glyph glyph-name="questiondown" unicode="&#xbf;" horiz-adv-x="1155" 
d="M817 575v-133q0 -40 -9 -69.5t-28.5 -50t-38 -32.5t-49.5 -28l-211 -106q-30 -15 -47.5 -39t-17.5 -70v-29q0 -67 45 -100t121 -33t119.5 32.5t43.5 100.5v74q0 33 13 47.5t45 14.5h211q32 0 45.5 -14.5t13.5 -47.5v-127q0 -70 -25.5 -129.5t-80.5 -110.5t-153.5 -80.5
t-231.5 -29.5t-232.5 29.5t-156 80t-83.5 111t-28 129.5v70q0 251 199 340l120 53q49 22 63.5 40.5t14.5 61.5v45q0 33 13 46.5t45 13.5h221q32 0 45.5 -14t13.5 -46zM479 795v170q0 32 13 45.5t45 13.5h221q32 0 45.5 -13.5t13.5 -45.5v-170q0 -33 -13.5 -47.5t-45.5 -14.5
h-221q-32 0 -45 14.5t-13 47.5z" />
    <glyph glyph-name="Agrave" unicode="&#xc0;" horiz-adv-x="1159" 
d="M690 1393q58 0 76 -62l371 -1270q19 -61 -45 -61h-228q-31 0 -47 15t-24 46l-54 197h-340l-53 -197q-8 -31 -24.5 -46t-47.5 -15h-206q-64 0 -45 61l370 1270q18 62 76 62h221zM666 524l-29 111q-28 108 -64 428q0 -1 -5 -42.5t-11.5 -87.5t-15 -102.5t-18.5 -109.5
t-19 -86l-31 -111h193zM397 1530l-141 207q-19 26 -10 43.5t41 17.5h219q58 0 84 -61l82 -189q25 -59 -33 -59h-162q-53 0 -80 41z" />
    <glyph glyph-name="Aacute" unicode="&#xc1;" horiz-adv-x="1159" 
d="M690 1393q58 0 76 -62l371 -1270q19 -61 -45 -61h-228q-31 0 -47 15t-24 46l-54 197h-340l-53 -197q-8 -31 -24.5 -46t-47.5 -15h-206q-64 0 -45 61l370 1270q18 62 76 62h221zM666 524l-29 111q-28 108 -64 428q0 -1 -5 -42.5t-11.5 -87.5t-15 -102.5t-18.5 -109.5
t-19 -86l-31 -111h193zM883 1737l-142 -207q-27 -41 -79 -41h-162q-58 0 -33 59l82 189q26 61 84 61h219q32 0 41 -17.5t-10 -43.5z" />
    <glyph glyph-name="Acircumflex" unicode="&#xc2;" horiz-adv-x="1159" 
d="M690 1393q58 0 76 -62l371 -1270q19 -61 -45 -61h-228q-31 0 -47 15t-24 46l-54 197h-340l-53 -197q-8 -31 -24.5 -46t-47.5 -15h-206q-64 0 -45 61l370 1270q18 62 76 62h221zM666 524l-29 111q-28 108 -64 428q0 -1 -5 -42.5t-11.5 -87.5t-15 -102.5t-18.5 -109.5
t-19 -86l-31 -111h193zM580 1606l-25 -58q-10 -24 -32 -41.5t-52 -17.5h-160q-32 0 -41.5 17t9.5 42l145 189q23 30 44.5 45.5t51.5 15.5h119q30 0 51.5 -15.5t44.5 -45.5l146 -189q19 -25 9 -42t-42 -17h-160q-57 0 -84 59z" />
    <glyph glyph-name="Atilde" unicode="&#xc3;" horiz-adv-x="1159" 
d="M690 1393q58 0 76 -62l371 -1270q19 -61 -45 -61h-228q-31 0 -47 15t-24 46l-54 197h-340l-53 -197q-8 -31 -24.5 -46t-47.5 -15h-206q-64 0 -45 61l370 1270q18 62 76 62h221zM666 524l-29 111q-28 108 -64 428q0 -1 -5 -42.5t-11.5 -87.5t-15 -102.5t-18.5 -109.5
t-19 -86l-31 -111h193zM469 1577q-32 0 -39 -27l-2 -8q-7 -31 -21.5 -42t-44.5 -11h-108q-56 0 -49 70l12 100q9 71 63.5 113.5t129.5 42.5q59 0 118 -23l86 -33q62 -24 74 -24q32 0 39 26l2 8q8 31 21.5 42.5t44.5 11.5h106q58 0 51 -70l-8 -92q-7 -75 -55 -115.5
t-117 -40.5q-73 0 -141 21l-88 28q-10 4 -28.5 11t-28 9.5t-17.5 2.5z" />
    <glyph glyph-name="Adieresis" unicode="&#xc4;" horiz-adv-x="1159" 
d="M690 1393q58 0 76 -62l371 -1270q19 -61 -45 -61h-228q-31 0 -47 15t-24 46l-54 197h-340l-53 -197q-8 -31 -24.5 -46t-47.5 -15h-206q-64 0 -45 61l370 1270q18 62 76 62h221zM666 524l-29 111q-28 108 -64 428q0 -1 -5 -42.5t-11.5 -87.5t-15 -102.5t-18.5 -109.5
t-19 -86l-31 -111h193zM541 1737v-189q0 -32 -13 -45.5t-45 -13.5h-123q-32 0 -45.5 13.5t-13.5 45.5v189q0 33 13.5 47t45.5 14h123q32 0 45 -14t13 -47zM858 1737v-189q0 -33 -12.5 -46t-44.5 -13h-123q-32 0 -46 13.5t-14 45.5v189q0 32 14 46.5t46 14.5h123
q32 0 44.5 -14t12.5 -47z" />
    <glyph glyph-name="Aring" unicode="&#xc5;" horiz-adv-x="1159" 
d="M690 1393q58 0 76 -62l371 -1270q19 -61 -45 -61h-228q-31 0 -47 15t-24 46l-54 197h-340l-53 -197q-8 -31 -24.5 -46t-47.5 -15h-206q-64 0 -45 61l370 1270q18 62 76 62h221zM666 524l-29 111q-28 108 -64 428q0 -1 -5 -42.5t-11.5 -87.5t-15 -102.5t-18.5 -109.5
t-19 -86l-31 -111h193zM829 1692v-70q0 -69 -62.5 -116.5t-186.5 -47.5t-187 47.5t-63 116.5v70q0 69 63 116t187 47t186.5 -47t62.5 -116zM657 1640v33q0 56 -77 56q-78 0 -78 -56v-33q0 -57 78 -57q77 0 77 57z" />
    <glyph glyph-name="AE" unicode="&#xc6;" horiz-adv-x="1705" 
d="M877 1393h675q33 0 47.5 -13t14.5 -45v-155q0 -32 -14.5 -46t-47.5 -14h-422v-272h390q33 0 47 -12.5t14 -44.5v-146q0 -32 -14 -45.5t-47 -13.5h-390v-314h443q33 0 47 -12.5t14 -44.5v-156q0 -32 -14 -45.5t-47 -13.5h-703q-32 0 -45.5 14t-13.5 47v197h-346l-115 -197
q-11 -19 -18 -29.5t-21.5 -21t-31.5 -10.5h-207q-34 0 -47.5 16.5t2.5 44.5l764 1272q36 60 86 60zM739 723l-116 -199h188v336q-25 -50 -72 -137z" />
    <glyph glyph-name="Ccedilla" unicode="&#xc7;" horiz-adv-x="1181" 
d="M631 -80h55q182 0 182 -172q0 -180 -182 -180h-256q-33 0 -47 13.5t-14 45.5v43q0 32 14 45t47 13h199q18 0 18 20q0 21 -18 21h-166q-96 0 -72 81l43 148q-90 16 -156.5 49.5t-103.5 80t-54.5 97.5t-17.5 109v725q0 70 25.5 129.5t81 110.5t157 80.5t240.5 29.5
t240.5 -29.5t157 -80.5t81 -110.5t25.5 -129.5v-94q0 -33 -12.5 -47.5t-44.5 -14.5h-211q-32 0 -46 14.5t-14 47.5v34q0 68 -46.5 101t-125.5 33t-124.5 -33t-45.5 -101v-606q0 -68 45.5 -100.5t124.5 -32.5t125.5 32.5t46.5 100.5v66q0 32 14 46.5t46 14.5h211
q32 0 44.5 -14t12.5 -47v-125q0 -67 -23.5 -125t-75 -108.5t-144.5 -81.5t-220 -35z" />
    <glyph glyph-name="Egrave" unicode="&#xc8;" horiz-adv-x="1036" 
d="M371 1530l-142 207q-19 26 -10 43.5t41 17.5h219q58 0 84 -61l82 -189q25 -59 -33 -59h-161q-53 0 -80 41zM903 0h-721q-32 0 -45.5 14t-13.5 47v1270q0 33 13.5 47.5t45.5 14.5h701q33 0 47 -13t14 -45v-159q0 -32 -14.5 -46t-46.5 -14h-422v-266h389q33 0 47 -12.5
t14 -44.5v-150q0 -32 -14 -45.5t-47 -13.5h-389v-308h442q33 0 47.5 -12.5t14.5 -44.5v-160q0 -32 -14.5 -45.5t-47.5 -13.5z" />
    <glyph glyph-name="Eacute" unicode="&#xc9;" horiz-adv-x="1036" 
d="M903 0h-721q-32 0 -45.5 14t-13.5 47v1270q0 33 13.5 47.5t45.5 14.5h701q33 0 47 -13t14 -45v-159q0 -32 -14.5 -46t-46.5 -14h-422v-266h389q33 0 47 -12.5t14 -44.5v-150q0 -32 -14 -45.5t-47 -13.5h-389v-308h442q33 0 47.5 -12.5t14.5 -44.5v-160q0 -32 -14.5 -45.5
t-47.5 -13.5zM803 1737l-141 -207q-27 -41 -80 -41h-162q-58 0 -33 59l82 189q26 61 84 61h219q32 0 41 -17.5t-10 -43.5z" />
    <glyph glyph-name="Ecircumflex" unicode="&#xca;" horiz-adv-x="1036" 
d="M518 1606l-24 -58q-10 -24 -32 -41.5t-52 -17.5h-160q-32 0 -42 17t9 42l145 189q47 61 97 61h119q30 0 51.5 -15.5t44.5 -45.5l145 -189q19 -25 9 -42t-42 -17h-159q-57 0 -84 59zM903 0h-721q-32 0 -45.5 14t-13.5 47v1270q0 33 13.5 47.5t45.5 14.5h701q33 0 47 -13
t14 -45v-159q0 -32 -14.5 -46t-46.5 -14h-422v-266h389q33 0 47 -12.5t14 -44.5v-150q0 -32 -14 -45.5t-47 -13.5h-389v-308h442q33 0 47.5 -12.5t14.5 -44.5v-160q0 -32 -14.5 -45.5t-47.5 -13.5z" />
    <glyph glyph-name="Edieresis" unicode="&#xcb;" horiz-adv-x="1036" 
d="M903 0h-721q-32 0 -45.5 14t-13.5 47v1270q0 33 13.5 47.5t45.5 14.5h701q33 0 47 -13t14 -45v-159q0 -32 -14.5 -46t-46.5 -14h-422v-266h389q33 0 47 -12.5t14 -44.5v-150q0 -32 -14 -45.5t-47 -13.5h-389v-308h442q33 0 47.5 -12.5t14.5 -44.5v-160q0 -32 -14.5 -45.5
t-47.5 -13.5zM487 1737v-189q0 -33 -12.5 -46t-44.5 -13h-123q-32 0 -45.5 13.5t-13.5 45.5v189q0 33 13.5 47t45.5 14h123q32 0 44.5 -14t12.5 -47zM805 1737v-189q0 -33 -12.5 -46t-44.5 -13h-123q-32 0 -46 13.5t-14 45.5v189q0 32 14 46.5t46 14.5h123q32 0 44.5 -14
t12.5 -47z" />
    <glyph glyph-name="Igrave" unicode="&#xcc;" horiz-adv-x="583" 
d="M461 1331v-1270q0 -33 -13 -47t-45 -14h-221q-32 0 -45.5 14t-13.5 47v1270q0 33 13.5 47.5t45.5 14.5h221q32 0 45 -14.5t13 -47.5zM129 1530l-141 207q-19 26 -10.5 43.5t40.5 17.5h220q58 0 84 -61l81 -189q25 -59 -32 -59h-162q-53 0 -80 41z" />
    <glyph glyph-name="Iacute" unicode="&#xcd;" horiz-adv-x="583" 
d="M461 1331v-1270q0 -33 -13 -47t-45 -14h-221q-32 0 -45.5 14t-13.5 47v1270q0 33 13.5 47.5t45.5 14.5h221q32 0 45 -14.5t13 -47.5zM580 1737l-142 -207q-27 -41 -80 -41h-161q-58 0 -33 59l82 189q26 61 84 61h219q32 0 41 -17.5t-10 -43.5z" />
    <glyph glyph-name="Icircumflex" unicode="&#xce;" horiz-adv-x="583" 
d="M461 1331v-1270q0 -33 -13 -47t-45 -14h-221q-32 0 -45.5 14t-13.5 47v1270q0 33 13.5 47.5t45.5 14.5h221q32 0 45 -14.5t13 -47.5zM291 1606l-25 -58q-10 -24 -32 -41.5t-52 -17.5h-159q-32 0 -42 17t9 42l145 189q23 30 44.5 45.5t51.5 15.5h119q30 0 51.5 -15.5
t44.5 -45.5l146 -189q19 -25 9 -42t-42 -17h-160q-57 0 -84 59z" />
    <glyph glyph-name="Idieresis" unicode="&#xcf;" horiz-adv-x="583" 
d="M461 1331v-1270q0 -33 -13 -47t-45 -14h-221q-32 0 -45.5 14t-13.5 47v1270q0 33 13.5 47.5t45.5 14.5h221q32 0 45 -14.5t13 -47.5zM252 1737v-189q0 -33 -12.5 -46t-44.5 -13h-123q-32 0 -46 13.5t-14 45.5v189q0 32 14 46.5t46 14.5h123q32 0 44.5 -14t12.5 -47z
M569 1737v-189q0 -33 -12.5 -46t-44.5 -13h-123q-32 0 -45.5 13.5t-13.5 45.5v189q0 33 13.5 47t45.5 14h123q32 0 44.5 -14t12.5 -47z" />
    <glyph glyph-name="Eth" unicode="&#xd0;" horiz-adv-x="1271" 
d="M645 0h-471q-51 0 -51 61v514h-64q-32 0 -46.5 14t-14.5 46v129q0 32 14 44.5t47 12.5h64v510q0 33 13.5 47.5t45.5 14.5h463q139 0 243.5 -29.5t164 -80.5t88 -111.5t28.5 -129.5v-692q0 -69 -28.5 -129.5t-88 -111t-164 -80t-243.5 -29.5zM645 1116h-184v-295h145
q33 0 47.5 -12.5t14.5 -44.5v-129q0 -32 -14.5 -46t-47.5 -14h-145v-299h184q81 0 133.5 33.5t52.5 100.5v573q0 67 -52.5 100t-133.5 33z" />
    <glyph glyph-name="Ntilde" unicode="&#xd1;" horiz-adv-x="1292" 
d="M537 1577q-32 0 -39 -27l-2 -8q-7 -31 -21.5 -42t-44.5 -11h-108q-57 0 -50 70l13 100q9 71 63 113.5t129 42.5q60 0 119 -23l86 -33q62 -24 74 -24q32 0 39 26l2 8q8 31 21.5 42.5t43.5 11.5h107q58 0 51 -70l-8 -92q-7 -75 -55 -115.5t-117 -40.5q-74 0 -142 21l-88 28
q-11 4 -28.5 11t-27 9.5t-17.5 2.5zM1169 1331v-1270q0 -33 -12.5 -47t-44.5 -14h-201q-38 0 -55 29l-328 544q-36 57 -88 185v-697q0 -33 -12.5 -47t-44.5 -14h-201q-32 0 -45.5 14t-13.5 47v1270q0 33 13.5 47.5t45.5 14.5h201q39 0 51 -25l346 -580q32 -55 72 -153v696
q0 33 13.5 47.5t45.5 14.5h201q32 0 44.5 -14.5t12.5 -47.5z" />
    <glyph glyph-name="Ograve" unicode="&#xd2;" horiz-adv-x="1251" 
d="M463 1530l-141 207q-19 26 -10.5 43.5t40.5 17.5h219q58 0 84 -61l82 -189q25 -59 -32 -59h-162q-53 0 -80 41zM102 334v725q0 69 28.5 129.5t87.5 111t163.5 80t243.5 29.5t243.5 -29.5t164 -80t88 -111t28.5 -129.5v-725q0 -69 -28.5 -129.5t-88 -111t-164 -80
t-243.5 -29.5t-243.5 29.5t-163.5 80t-87.5 111t-28.5 129.5zM811 393v606q0 67 -52.5 100.5t-133.5 33.5t-133 -33.5t-52 -100.5v-606q0 -67 52 -100t133 -33t133.5 33t52.5 100z" />
    <glyph glyph-name="Oacute" unicode="&#xd3;" horiz-adv-x="1251" 
d="M895 1737l-141 -207q-27 -41 -80 -41h-162q-58 0 -33 59l82 189q26 61 84 61h219q32 0 41 -17.5t-10 -43.5zM102 334v725q0 69 28.5 129.5t87.5 111t163.5 80t243.5 29.5t243.5 -29.5t164 -80t88 -111t28.5 -129.5v-725q0 -69 -28.5 -129.5t-88 -111t-164 -80
t-243.5 -29.5t-243.5 29.5t-163.5 80t-87.5 111t-28.5 129.5zM811 393v606q0 67 -52.5 100.5t-133.5 33.5t-133 -33.5t-52 -100.5v-606q0 -67 52 -100t133 -33t133.5 33t52.5 100z" />
    <glyph glyph-name="Ocircumflex" unicode="&#xd4;" horiz-adv-x="1251" 
d="M625 1606l-25 -58q-10 -24 -32 -41.5t-52 -17.5h-160q-32 0 -41.5 17t9.5 42l145 189q23 30 44.5 45.5t51.5 15.5h119q30 0 51.5 -15.5t44.5 -45.5l146 -189q19 -25 9 -42t-42 -17h-160q-57 0 -84 59zM102 334v725q0 69 28.5 129.5t87.5 111t163.5 80t243.5 29.5
t243.5 -29.5t164 -80t88 -111t28.5 -129.5v-725q0 -69 -28.5 -129.5t-88 -111t-164 -80t-243.5 -29.5t-243.5 29.5t-163.5 80t-87.5 111t-28.5 129.5zM811 393v606q0 67 -52.5 100.5t-133.5 33.5t-133 -33.5t-52 -100.5v-606q0 -67 52 -100t133 -33t133.5 33t52.5 100z" />
    <glyph glyph-name="Otilde" unicode="&#xd5;" horiz-adv-x="1251" 
d="M102 334v725q0 69 28.5 129.5t87.5 111t163.5 80t243.5 29.5t243.5 -29.5t164 -80t88 -111t28.5 -129.5v-725q0 -69 -28.5 -129.5t-88 -111t-164 -80t-243.5 -29.5t-243.5 29.5t-163.5 80t-87.5 111t-28.5 129.5zM811 393v606q0 67 -52.5 100.5t-133.5 33.5t-133 -33.5
t-52 -100.5v-606q0 -67 52 -100t133 -33t133.5 33t52.5 100zM516 1577q-32 0 -39 -27l-2 -8q-7 -32 -21 -42.5t-44 -10.5h-109q-56 0 -49 70l12 100q9 71 63.5 113.5t129.5 42.5q59 0 118 -23l87 -33q62 -24 73 -24q33 0 39 26l2 8q8 31 21.5 42.5t44.5 11.5h106
q58 0 51 -70l-8 -92q-7 -75 -55 -115.5t-117 -40.5q-73 0 -141 21l-88 28q-10 4 -28.5 11t-28 9.5t-17.5 2.5z" />
    <glyph glyph-name="Odieresis" unicode="&#xd6;" horiz-adv-x="1251" 
d="M102 334v725q0 69 28.5 129.5t87.5 111t163.5 80t243.5 29.5t243.5 -29.5t164 -80t88 -111t28.5 -129.5v-725q0 -69 -28.5 -129.5t-88 -111t-164 -80t-243.5 -29.5t-243.5 29.5t-163.5 80t-87.5 111t-28.5 129.5zM811 393v606q0 67 -52.5 100.5t-133.5 33.5t-133 -33.5
t-52 -100.5v-606q0 -67 52 -100t133 -33t133.5 33t52.5 100zM586 1737v-189q0 -32 -13 -45.5t-45 -13.5h-122q-32 0 -46 13.5t-14 45.5v189q0 32 14 46.5t46 14.5h122q32 0 45 -14t13 -47zM903 1737v-189q0 -33 -12.5 -46t-44.5 -13h-123q-32 0 -45.5 13.5t-13.5 45.5v189
q0 33 13.5 47t45.5 14h123q32 0 44.5 -14t12.5 -47z" />
    <glyph glyph-name="multiply" unicode="&#xd7;" horiz-adv-x="1105" 
d="M637 281l-133 229l-232 -133q-27 -16 -46 -11.5t-36 33.5l-73 129q-15 28 -10 45.5t34 34.5l230 133l-133 232q-17 29 -13.5 48t31.5 34l129 75q29 17 48 11.5t36 -35.5l133 -232l232 134q29 17 47.5 13t33.5 -32l76 -129q17 -29 11.5 -48t-35.5 -36l-232 -133l133 -231
q16 -27 11.5 -46t-33.5 -36l-129 -74q-28 -15 -45.5 -9.5t-34.5 34.5z" />
    <glyph glyph-name="Oslash" unicode="&#xd8;" horiz-adv-x="1251" 
d="M102 330v725q0 69 28.5 129.5t87.5 111t163.5 80t243.5 29.5q149 0 256 -35l18 35q15 30 30.5 45.5t43.5 15.5h74q17 0 24 -9.5t5.5 -22.5t-9.5 -29l-51 -100q133 -93 133 -250v-725q0 -69 -28.5 -129.5t-88 -111t-164 -80t-243.5 -29.5q-146 0 -258 32l-17 -30
q-19 -36 -33.5 -49t-44.5 -13h-69q-23 0 -28.5 18.5t7.5 43.5l49 96q-129 95 -129 252zM811 389v508l-309 -614q49 -27 123 -27q81 0 133.5 33t52.5 100zM440 995v-501l305 608q-48 26 -120 26q-81 0 -133 -33t-52 -100z" />
    <glyph glyph-name="Ugrave" unicode="&#xd9;" horiz-adv-x="1271" 
d="M489 1530l-141 207q-19 26 -10 43.5t41 17.5h219q58 0 84 -61l82 -189q25 -59 -33 -59h-162q-53 0 -80 41zM451 1331v-938q0 -67 51.5 -100t132.5 -33t133.5 33t52.5 100v938q0 33 14 47.5t46 14.5h221q32 0 44.5 -14.5t12.5 -47.5v-997q0 -69 -28.5 -129.5t-88 -111
t-164 -80t-243.5 -29.5t-243 29.5t-163 80t-87.5 111t-28.5 129.5v997q0 33 13.5 47.5t45.5 14.5h221q32 0 45 -14.5t13 -47.5z" />
    <glyph glyph-name="Uacute" unicode="&#xda;" horiz-adv-x="1271" 
d="M451 1331v-938q0 -67 51.5 -100t132.5 -33t133.5 33t52.5 100v938q0 33 14 47.5t46 14.5h221q32 0 44.5 -14.5t12.5 -47.5v-997q0 -69 -28.5 -129.5t-88 -111t-164 -80t-243.5 -29.5t-243 29.5t-163 80t-87.5 111t-28.5 129.5v997q0 33 13.5 47.5t45.5 14.5h221
q32 0 45 -14.5t13 -47.5zM930 1737l-142 -207q-27 -41 -79 -41h-162q-58 0 -33 59l82 189q26 61 84 61h219q32 0 41 -17.5t-10 -43.5z" />
    <glyph glyph-name="Ucircumflex" unicode="&#xdb;" horiz-adv-x="1271" 
d="M635 1606l-25 -58q-10 -24 -32 -41.5t-52 -17.5h-159q-32 0 -42 17t9 42l145 189q23 30 44.5 45.5t51.5 15.5h119q50 0 97 -61l145 -189q19 -25 9 -42t-42 -17h-160q-57 0 -84 59zM451 1331v-938q0 -67 51.5 -100t132.5 -33t133.5 33t52.5 100v938q0 33 14 47.5t46 14.5
h221q32 0 44.5 -14.5t12.5 -47.5v-997q0 -69 -28.5 -129.5t-88 -111t-164 -80t-243.5 -29.5t-243 29.5t-163 80t-87.5 111t-28.5 129.5v997q0 33 13.5 47.5t45.5 14.5h221q32 0 45 -14.5t13 -47.5z" />
    <glyph glyph-name="Udieresis" unicode="&#xdc;" horiz-adv-x="1271" 
d="M451 1331v-938q0 -67 51.5 -100t132.5 -33t133.5 33t52.5 100v938q0 33 14 47.5t46 14.5h221q32 0 44.5 -14.5t12.5 -47.5v-997q0 -69 -28.5 -129.5t-88 -111t-164 -80t-243.5 -29.5t-243 29.5t-163 80t-87.5 111t-28.5 129.5v997q0 33 13.5 47.5t45.5 14.5h221
q32 0 45 -14.5t13 -47.5zM596 1737v-189q0 -33 -12.5 -46t-44.5 -13h-123q-32 0 -46 13.5t-14 45.5v189q0 32 14 46.5t46 14.5h123q32 0 44.5 -14t12.5 -47zM913 1737v-189q0 -33 -12.5 -46t-44.5 -13h-123q-32 0 -45.5 13.5t-13.5 45.5v189q0 33 13.5 47t45.5 14h123
q32 0 44.5 -14t12.5 -47z" />
    <glyph glyph-name="Yacute" unicode="&#xdd;" horiz-adv-x="1142" 
d="M391 1331l146 -407q12 -36 34 -123q17 69 41 123l172 407q12 31 27.5 46.5t44.5 15.5h217q33 0 45.5 -16.5t-0.5 -45.5l-377 -815v-455q0 -33 -12.5 -47t-44.5 -14h-221q-32 0 -46 14.5t-14 46.5v414l-378 856q-12 28 -0.5 45t43.5 17h249q54 0 74 -62zM883 1737
l-142 -207q-27 -41 -79 -41h-162q-58 0 -33 59l82 189q26 61 84 61h219q32 0 41 -17.5t-10 -43.5z" />
    <glyph glyph-name="Thorn" unicode="&#xde;" horiz-adv-x="1200" 
d="M461 1331v-307h164q139 0 243 -29.5t162.5 -80t86.5 -111t28 -129.5v-158q0 -69 -28 -129.5t-86.5 -111t-162.5 -80t-243 -29.5h-164v-105q0 -33 -13 -47t-45 -14h-221q-32 0 -45.5 14t-13.5 47v1270q0 33 13.5 47.5t45.5 14.5h221q32 0 45 -14.5t13 -47.5zM625 748h-164
v-306h164q81 0 133.5 33t52.5 100v39q0 67 -52.5 100.5t-133.5 33.5z" />
    <glyph glyph-name="germandbls" unicode="&#xdf;" horiz-adv-x="1349" 
d="M520 1114v-1053q0 -33 -12.5 -47t-44.5 -14h-211q-32 0 -45.5 14t-13.5 47v703h-103q-32 0 -45.5 13.5t-13.5 45.5v125q0 31 13.5 44t45.5 16l100 12h3v110q0 149 128 234.5t371 85.5q240 0 357.5 -84.5t117.5 -235.5v-71q0 -62 -35.5 -112.5t-97.5 -80.5l-141 -67
q-31 -13 -31 -35v-2q0 -26 43 -45l236 -115q73 -35 125.5 -96t52.5 -137v-74q0 -311 -375 -311q-198 0 -277 73.5t-79 223.5v6q0 32 13.5 45.5t45.5 13.5h144q32 0 45.5 -13.5t13.5 -45.5v-21q0 -80 86 -80q88 0 88 82v47q0 40 -55 64l-213 96q-83 37 -122.5 94.5
t-39.5 153.5v41q0 125 121 184l86 41q38 19 50.5 40t12.5 50v35q0 111 -172 111t-172 -111z" />
    <glyph glyph-name="agrave" unicode="&#xe0;" horiz-adv-x="1069" 
d="M111 707v24q0 309 434 309q225 0 328.5 -79t103.5 -230v-670q0 -33 -13.5 -47t-45.5 -14h-189q-32 0 -43 13t-16 48l-4 31q-130 -108 -287 -108q-147 0 -224 76t-77 186v88q0 110 87.5 187t240.5 77h249v113q0 49 -26.5 71.5t-89.5 22.5q-66 0 -94.5 -19t-28.5 -65v-14
q0 -32 -14 -46t-46 -14h-186q-32 0 -45.5 14t-13.5 46zM467 238q81 0 188 75v68h-188q-70 0 -70 -64v-26q0 -53 70 -53zM416 1182l-142 207q-19 26 -10 43.5t41 17.5h219q58 0 84 -61l82 -189q25 -59 -33 -59h-161q-53 0 -80 41z" />
    <glyph glyph-name="aacute" unicode="&#xe1;" horiz-adv-x="1069" 
d="M111 707v24q0 309 434 309q225 0 328.5 -79t103.5 -230v-670q0 -33 -13.5 -47t-45.5 -14h-189q-32 0 -43 13t-16 48l-4 31q-130 -108 -287 -108q-147 0 -224 76t-77 186v88q0 110 87.5 187t240.5 77h249v113q0 49 -26.5 71.5t-89.5 22.5q-66 0 -94.5 -19t-28.5 -65v-14
q0 -32 -14 -46t-46 -14h-186q-32 0 -45.5 14t-13.5 46zM467 238q81 0 188 75v68h-188q-70 0 -70 -64v-26q0 -53 70 -53zM805 1389l-141 -207q-27 -41 -80 -41h-162q-58 0 -33 59l82 189q26 61 84 61h219q32 0 41 -17.5t-10 -43.5z" />
    <glyph glyph-name="acircumflex" unicode="&#xe2;" horiz-adv-x="1069" 
d="M111 707v24q0 309 434 309q225 0 328.5 -79t103.5 -230v-670q0 -33 -13.5 -47t-45.5 -14h-189q-32 0 -43 13t-16 48l-4 31q-130 -108 -287 -108q-147 0 -224 76t-77 186v88q0 110 87.5 187t240.5 77h249v113q0 49 -26.5 71.5t-89.5 22.5q-66 0 -94.5 -19t-28.5 -65v-14
q0 -32 -14 -46t-46 -14h-186q-32 0 -45.5 14t-13.5 46zM467 238q81 0 188 75v68h-188q-70 0 -70 -64v-26q0 -53 70 -53zM543 1257l-25 -57q-10 -24 -32 -41.5t-52 -17.5h-160q-32 0 -41.5 17t9.5 42l145 189q23 30 44.5 45.5t51.5 15.5h119q30 0 51.5 -15.5t44.5 -45.5
l146 -189q19 -25 9 -42t-42 -17h-160q-57 0 -84 59z" />
    <glyph glyph-name="atilde" unicode="&#xe3;" horiz-adv-x="1069" 
d="M111 707v24q0 309 434 309q225 0 328.5 -79t103.5 -230v-670q0 -33 -13.5 -47t-45.5 -14h-189q-32 0 -43 13t-16 48l-4 31q-130 -108 -287 -108q-147 0 -224 76t-77 186v88q0 110 87.5 187t240.5 77h249v113q0 49 -26.5 71.5t-89.5 22.5q-66 0 -94.5 -19t-28.5 -65v-14
q0 -32 -14 -46t-46 -14h-186q-32 0 -45.5 14t-13.5 46zM467 238q81 0 188 75v68h-188q-70 0 -70 -64v-26q0 -53 70 -53zM440 1208q-32 0 -39 -26l-2 -8q-7 -32 -21 -43t-44 -11h-109q-56 0 -49 70l12 100q9 71 63.5 113.5t129.5 42.5q60 0 119 -23l86 -32q8 -3 21.5 -8.5
t20.5 -8.5t16 -5.5t15 -2.5q32 0 39 27l2 8q7 31 21 42t45 11h106q59 0 52 -70l-9 -92q-7 -75 -55 -115t-117 -40q-76 0 -141 20l-88 29q-64 22 -74 22z" />
    <glyph glyph-name="adieresis" unicode="&#xe4;" horiz-adv-x="1069" 
d="M111 707v24q0 309 434 309q225 0 328.5 -79t103.5 -230v-670q0 -33 -13.5 -47t-45.5 -14h-189q-32 0 -43 13t-16 48l-4 31q-130 -108 -287 -108q-147 0 -224 76t-77 186v88q0 110 87.5 187t240.5 77h249v113q0 49 -26.5 71.5t-89.5 22.5q-66 0 -94.5 -19t-28.5 -65v-14
q0 -32 -14 -46t-46 -14h-186q-32 0 -45.5 14t-13.5 46zM467 238q81 0 188 75v68h-188q-70 0 -70 -64v-26q0 -53 70 -53zM504 1389v-189q0 -32 -13 -45.5t-45 -13.5h-122q-32 0 -46 13.5t-14 45.5v189q0 32 14 46.5t46 14.5h122q32 0 45 -14t13 -47zM821 1389v-189
q0 -33 -12.5 -46t-44.5 -13h-123q-32 0 -45.5 13.5t-13.5 45.5v189q0 33 13.5 47t45.5 14h123q32 0 44.5 -14t12.5 -47z" />
    <glyph glyph-name="aring" unicode="&#xe5;" horiz-adv-x="1069" 
d="M111 707v24q0 309 434 309q225 0 328.5 -79t103.5 -230v-670q0 -33 -13.5 -47t-45.5 -14h-189q-32 0 -43 13t-16 48l-4 31q-130 -108 -287 -108q-147 0 -224 76t-77 186v88q0 110 87.5 187t240.5 77h249v113q0 49 -26.5 71.5t-89.5 22.5q-66 0 -94.5 -19t-28.5 -65v-14
q0 -32 -14 -46t-46 -14h-186q-32 0 -45.5 14t-13.5 46zM467 238q81 0 188 75v68h-188q-70 0 -70 -64v-26q0 -53 70 -53zM799 1339v-69q0 -69 -63 -116.5t-187 -47.5t-187 47.5t-63 116.5v69q0 69 63 116.5t187 47.5t187 -47.5t63 -116.5zM627 1288v33q0 55 -78 55t-78 -55
v-33q0 -57 78 -57t78 57z" />
    <glyph glyph-name="ae" unicode="&#xe6;" horiz-adv-x="1603" 
d="M1528 721v-227q0 -29 -13 -42.5t-42 -13.5h-498v-123q0 -46 29.5 -68t93.5 -22q125 0 125 90v2q0 32 13.5 46t45.5 14h176q32 0 46 -14t14 -46v-14q0 -154 -99 -236.5t-321 -82.5q-267 0 -373 118q-159 -118 -346 -118q-147 0 -224 76t-77 186v88q0 110 87.5 187
t240.5 77h249v121q0 86 -116 86q-66 0 -94.5 -19t-28.5 -65v-14q0 -32 -14 -46t-46 -14h-186q-32 0 -45.5 14t-13.5 46v24q0 309 434 309q177 0 266 -82q110 82 287 82q430 0 430 -319zM467 238q81 0 188 75v68h-188q-70 0 -70 -64v-26q0 -53 70 -53zM975 707v-54h248v54
q0 92 -125 92q-123 0 -123 -92z" />
    <glyph glyph-name="ccedilla" unicode="&#xe7;" horiz-adv-x="1019" 
d="M545 -80h55q182 0 182 -172q0 -180 -182 -180h-256q-33 0 -47 13.5t-14 45.5v43q0 32 14 45t47 13h199q18 0 18 20q0 21 -18 21h-166q-96 0 -72 81l43 150q-135 29 -200.5 106.5t-65.5 196.5v418q0 151 109.5 235t334.5 84t334 -83.5t109 -235.5v-31q0 -32 -14 -45.5
t-46 -13.5h-194q-32 0 -46 13.5t-14 45.5v6q0 50 -28.5 69t-94.5 19t-94 -19t-28 -69v-366q0 -50 28 -70t94 -20t94.5 20t28.5 70v24q0 32 14 46t46 14h194q32 0 46 -14t14 -46v-51q0 -144 -101 -227t-307 -90z" />
    <glyph glyph-name="egrave" unicode="&#xe8;" horiz-adv-x="1030" 
d="M954 721v-227q0 -29 -13 -42.5t-42 -13.5h-498v-123q0 -46 29.5 -68t93.5 -22q125 0 125 90v2q0 32 14 46t46 14h176q32 0 45.5 -14t13.5 -46v-14q0 -154 -99 -236.5t-321 -82.5q-225 0 -333.5 83.5t-108.5 235.5v418q0 152 108.5 235.5t333.5 83.5q430 0 430 -319z
M401 707v-60h248v60q0 92 -125 92q-123 0 -123 -92zM371 1182l-142 207q-19 26 -10 43.5t41 17.5h219q58 0 84 -61l82 -189q25 -59 -33 -59h-161q-53 0 -80 41z" />
    <glyph glyph-name="eacute" unicode="&#xe9;" horiz-adv-x="1030" 
d="M795 1389l-142 -207q-27 -41 -80 -41h-161q-58 0 -33 59l82 189q26 61 84 61h219q32 0 41 -17.5t-10 -43.5zM954 721v-227q0 -29 -13 -42.5t-42 -13.5h-498v-123q0 -46 29.5 -68t93.5 -22q125 0 125 90v2q0 32 14 46t46 14h176q32 0 45.5 -14t13.5 -46v-14
q0 -154 -99 -236.5t-321 -82.5q-225 0 -333.5 83.5t-108.5 235.5v418q0 152 108.5 235.5t333.5 83.5q430 0 430 -319zM401 707v-60h248v60q0 92 -125 92q-123 0 -123 -92z" />
    <glyph glyph-name="ecircumflex" unicode="&#xea;" horiz-adv-x="1030" 
d="M524 1257l-24 -57q-10 -24 -32 -41.5t-52 -17.5h-160q-32 0 -42 17t9 42l146 189q23 30 44.5 45.5t51.5 15.5h119q30 0 51.5 -15.5t44.5 -45.5l145 -189q19 -25 9.5 -42t-41.5 -17h-160q-57 0 -84 59zM954 721v-227q0 -29 -13 -42.5t-42 -13.5h-498v-123q0 -46 29.5 -68
t93.5 -22q125 0 125 90v2q0 32 14 46t46 14h176q32 0 45.5 -14t13.5 -46v-14q0 -154 -99 -236.5t-321 -82.5q-225 0 -333.5 83.5t-108.5 235.5v418q0 152 108.5 235.5t333.5 83.5q430 0 430 -319zM401 707v-60h248v60q0 92 -125 92q-123 0 -123 -92z" />
    <glyph glyph-name="edieresis" unicode="&#xeb;" horiz-adv-x="1030" 
d="M481 1389v-189q0 -33 -12.5 -46t-44.5 -13h-123q-32 0 -45.5 13.5t-13.5 45.5v189q0 33 13.5 47t45.5 14h123q32 0 44.5 -14t12.5 -47zM799 1389v-189q0 -32 -13 -45.5t-45 -13.5h-123q-32 0 -45.5 13.5t-13.5 45.5v189q0 33 13.5 47t45.5 14h123q32 0 45 -14t13 -47z
M954 721v-227q0 -29 -13 -42.5t-42 -13.5h-498v-123q0 -46 29.5 -68t93.5 -22q125 0 125 90v2q0 32 14 46t46 14h176q32 0 45.5 -14t13.5 -46v-14q0 -154 -99 -236.5t-321 -82.5q-225 0 -333.5 83.5t-108.5 235.5v418q0 152 108.5 235.5t333.5 83.5q430 0 430 -319zM401 707
v-60h248v60q0 92 -125 92q-123 0 -123 -92z" />
    <glyph glyph-name="igrave" unicode="&#xec;" 
d="M430 963v-902q0 -33 -12.5 -47t-44.5 -14h-211q-32 0 -46 14.5t-14 46.5v902q0 32 14 46.5t46 14.5h211q32 0 44.5 -14t12.5 -47zM111 1182l-142 207q-19 26 -10 43.5t41 17.5h219q58 0 84 -61l82 -189q25 -59 -33 -59h-162q-52 0 -79 41z" />
    <glyph glyph-name="iacute" unicode="&#xed;" 
d="M557 1389l-141 -207q-27 -41 -80 -41h-162q-58 0 -33 59l82 189q26 61 84 61h219q32 0 41 -17.5t-10 -43.5zM430 963v-902q0 -33 -12.5 -47t-44.5 -14h-211q-32 0 -46 14.5t-14 46.5v902q0 32 14 46.5t46 14.5h211q32 0 44.5 -14t12.5 -47z" />
    <glyph glyph-name="icircumflex" unicode="&#xee;" 
d="M274 1257l-24 -57q-10 -24 -32 -41.5t-52 -17.5h-160q-32 0 -42 17t9 42l146 189q23 30 44.5 45.5t51.5 15.5h119q30 0 51.5 -15.5t44.5 -45.5l145 -189q19 -25 9.5 -42t-41.5 -17h-160q-57 0 -84 59zM430 963v-902q0 -33 -12.5 -47t-44.5 -14h-211q-32 0 -46 14.5
t-14 46.5v902q0 32 14 46.5t46 14.5h211q32 0 44.5 -14t12.5 -47z" />
    <glyph glyph-name="idieresis" unicode="&#xef;" 
d="M229 1389v-189q0 -33 -12.5 -46t-44.5 -13h-123q-32 0 -45.5 13.5t-13.5 45.5v189q0 33 13.5 47t45.5 14h123q32 0 44.5 -14t12.5 -47zM547 1389v-189q0 -32 -13 -45.5t-45 -13.5h-122q-32 0 -46 13.5t-14 45.5v189q0 32 14 46.5t46 14.5h122q32 0 45 -14t13 -47z
M430 963v-902q0 -33 -12.5 -47t-44.5 -14h-211q-32 0 -46 14.5t-14 46.5v902q0 32 14 46.5t46 14.5h211q32 0 44.5 -14t12.5 -47z" />
    <glyph glyph-name="eth" unicode="&#xf0;" horiz-adv-x="1175" 
d="M573 1178l62 36q-27 11 -80 11h-207q-32 0 -46.5 14.5t-14.5 46.5v105q0 32 14 45.5t47 13.5h207q220 0 338 -88l82 49q55 32 84 -22l22 -35q30 -46 -24 -80l-72 -43q14 -43 14 -101v-827q0 -151 -111.5 -235t-336.5 -84q-228 0 -348.5 85t-120.5 234v422
q0 150 75.5 232.5t227.5 82.5q168 0 307 -106v129l-39 -23q-28 -15 -46.5 -10t-35.5 31l-22 37q-30 51 24 80zM692 332v344q-117 84 -203 84q-28 0 -45 -7t-24 -21.5t-8.5 -26t-1.5 -31.5v-342q0 -92 141 -92t141 92z" />
    <glyph glyph-name="ntilde" unicode="&#xf1;" horiz-adv-x="1132" 
d="M162 1024h196q32 0 44.5 -13t15.5 -46l4 -35q133 110 317 110q138 0 219.5 -79t81.5 -205v-695q0 -33 -13.5 -47t-45.5 -14h-207q-32 0 -46.5 14.5t-14.5 46.5v611q0 50 -15 69t-63 19q-97 0 -205 -82v-617q0 -33 -12.5 -47t-44.5 -14h-211q-32 0 -46 14.5t-14 46.5v904
q0 32 14 45.5t46 13.5zM453 1229q-32 0 -39 -27l-2 -8q-7 -31 -21.5 -42t-44.5 -11h-108q-57 0 -50 69l13 101q9 71 63 113t129 42q62 0 119 -22l86 -33q8 -3 21.5 -8.5t21 -8.5t16.5 -5.5t15 -2.5q32 0 39 27l2 8q8 31 21.5 42.5t43.5 11.5h107q58 0 51 -70l-8 -92
q-7 -75 -55 -115.5t-117 -40.5q-74 0 -142 21l-88 28q-11 4 -28.5 11t-27 9.5t-17.5 2.5z" />
    <glyph glyph-name="ograve" unicode="&#xf2;" horiz-adv-x="1101" 
d="M82 303v418q0 149 120.5 234t348.5 85t348.5 -85t120.5 -234v-418q0 -149 -120.5 -234t-348.5 -85t-348.5 85t-120.5 234zM692 332v362q0 90 -141 90t-141 -90v-362q0 -92 141 -92t141 92zM406 1182l-142 207q-19 26 -10 43.5t41 17.5h219q58 0 84 -61l82 -189
q25 -59 -33 -59h-162q-52 0 -79 41z" />
    <glyph glyph-name="oacute" unicode="&#xf3;" horiz-adv-x="1101" 
d="M836 1389l-142 -207q-27 -41 -80 -41h-161q-58 0 -33 59l82 189q26 61 84 61h219q32 0 41 -17.5t-10 -43.5zM82 303v418q0 149 120.5 234t348.5 85t348.5 -85t120.5 -234v-418q0 -149 -120.5 -234t-348.5 -85t-348.5 85t-120.5 234zM692 332v362q0 90 -141 90t-141 -90
v-362q0 -92 141 -92t141 92z" />
    <glyph glyph-name="ocircumflex" unicode="&#xf4;" horiz-adv-x="1101" 
d="M555 1257l-25 -57q-10 -24 -32 -41.5t-52 -17.5h-159q-32 0 -42 17t9 42l145 189q47 61 97 61h118q50 0 97 -61l145 -189q19 -25 9 -42t-42 -17h-159q-57 0 -84 59zM82 303v418q0 149 120.5 234t348.5 85t348.5 -85t120.5 -234v-418q0 -149 -120.5 -234t-348.5 -85
t-348.5 85t-120.5 234zM692 332v362q0 90 -141 90t-141 -90v-362q0 -92 141 -92t141 92z" />
    <glyph glyph-name="otilde" unicode="&#xf5;" horiz-adv-x="1101" 
d="M82 303v418q0 149 120.5 234t348.5 85t348.5 -85t120.5 -234v-418q0 -149 -120.5 -234t-348.5 -85t-348.5 85t-120.5 234zM692 332v362q0 90 -141 90t-141 -90v-362q0 -92 141 -92t141 92zM446 1208q-32 0 -38 -26l-2 -8q-7 -32 -21.5 -43t-44.5 -11h-109q-56 0 -49 70
l13 100q9 71 63 113.5t129 42.5q60 0 119 -23l86 -32q8 -3 21.5 -8.5t21 -8.5t16.5 -5.5t15 -2.5q32 0 39 27l2 8q8 31 21 42t44 11h107q58 0 51 -70l-8 -92q-7 -75 -55 -115t-117 -40q-77 0 -142 20l-88 29q-64 22 -74 22z" />
    <glyph glyph-name="odieresis" unicode="&#xf6;" horiz-adv-x="1101" 
d="M516 1389v-189q0 -33 -12.5 -46t-44.5 -13h-123q-32 0 -46 13.5t-14 45.5v189q0 32 14 46.5t46 14.5h123q32 0 44.5 -14t12.5 -47zM834 1389v-189q0 -32 -13 -45.5t-45 -13.5h-123q-32 0 -45.5 13.5t-13.5 45.5v189q0 33 13.5 47t45.5 14h123q32 0 45 -14t13 -47zM82 303
v418q0 149 120.5 234t348.5 85t348.5 -85t120.5 -234v-418q0 -149 -120.5 -234t-348.5 -85t-348.5 85t-120.5 234zM692 332v362q0 90 -141 90t-141 -90v-362q0 -92 141 -92t141 92z" />
    <glyph glyph-name="divide" unicode="&#xf7;" horiz-adv-x="1181" 
d="M164 723h854q33 0 47 -12.5t14 -44.5v-150q0 -32 -14 -45.5t-47 -13.5h-854q-33 0 -47.5 13.5t-14.5 45.5v150q0 32 14.5 44.5t47.5 12.5zM758 299v-170q0 -32 -13 -45.5t-45 -13.5h-217q-32 0 -45.5 13.5t-13.5 45.5v170q0 33 13.5 47t45.5 14h217q32 0 45 -14t13 -47z
M758 1049v-170q0 -33 -13 -46.5t-45 -13.5h-217q-32 0 -45.5 14t-13.5 46v170q0 33 13.5 47t45.5 14h217q32 0 45 -14t13 -47z" />
    <glyph glyph-name="oslash" unicode="&#xf8;" horiz-adv-x="1101" 
d="M82 303v418q0 149 120.5 234t348.5 85q96 0 188 -20l13 22q10 19 17.5 30.5t22.5 21.5t33 10h72q50 0 16 -62l-39 -71q146 -84 146 -250v-418q0 -149 -120.5 -234t-348.5 -85q-92 0 -191 18l-8 -16q-19 -35 -35 -48.5t-47 -13.5h-65q-24 0 -26 21.5t11 40.5l35 67
q-143 84 -143 250zM692 332v295l-203 -383q18 -4 62 -4q141 0 141 92zM410 694v-297l202 381q-27 6 -61 6q-141 0 -141 -90z" />
    <glyph glyph-name="ugrave" unicode="&#xf9;" horiz-adv-x="1120" 
d="M702 59l-4 33q-127 -108 -305 -108q-138 0 -219.5 79t-81.5 205v695q0 32 14 46.5t46 14.5h206q32 0 47 -14.5t15 -46.5v-611q0 -50 15 -69t63 -19q91 0 192 80v619q0 33 13 47t45 14h210q32 0 46 -14.5t14 -46.5v-904q0 -32 -14 -45.5t-46 -13.5h-196q-31 0 -43 12.5
t-17 46.5zM399 1182l-141 207q-19 26 -10 43.5t41 17.5h219q58 0 84 -61l82 -189q25 -59 -33 -59h-162q-53 0 -80 41z" />
    <glyph glyph-name="uacute" unicode="&#xfa;" horiz-adv-x="1120" 
d="M842 1389l-142 -207q-27 -41 -79 -41h-162q-58 0 -33 59l82 189q26 61 84 61h219q32 0 41 -17.5t-10 -43.5zM702 59l-4 33q-127 -108 -305 -108q-138 0 -219.5 79t-81.5 205v695q0 32 14 46.5t46 14.5h206q32 0 47 -14.5t15 -46.5v-611q0 -50 15 -69t63 -19q91 0 192 80
v619q0 33 13 47t45 14h210q32 0 46 -14.5t14 -46.5v-904q0 -32 -14 -45.5t-46 -13.5h-196q-31 0 -43 12.5t-17 46.5z" />
    <glyph glyph-name="ucircumflex" unicode="&#xfb;" horiz-adv-x="1120" 
d="M526 1257l-24 -57q-10 -24 -32 -41.5t-52 -17.5h-160q-32 0 -42 17t9 42l146 189q23 30 44.5 45.5t51.5 15.5h119q30 0 51.5 -15.5t44.5 -45.5l145 -189q19 -25 9.5 -42t-41.5 -17h-160q-57 0 -84 59zM702 59l-4 33q-127 -108 -305 -108q-138 0 -219.5 79t-81.5 205v695
q0 32 14 46.5t46 14.5h206q32 0 47 -14.5t15 -46.5v-611q0 -50 15 -69t63 -19q91 0 192 80v619q0 33 13 47t45 14h210q32 0 46 -14.5t14 -46.5v-904q0 -32 -14 -45.5t-46 -13.5h-196q-31 0 -43 12.5t-17 46.5z" />
    <glyph glyph-name="udieresis" unicode="&#xfc;" horiz-adv-x="1120" 
d="M510 1389v-189q0 -33 -12.5 -46t-44.5 -13h-123q-32 0 -46 13.5t-14 45.5v189q0 32 14 46.5t46 14.5h123q32 0 44.5 -14t12.5 -47zM827 1389v-189q0 -33 -12.5 -46t-44.5 -13h-123q-32 0 -45.5 13.5t-13.5 45.5v189q0 33 13.5 47t45.5 14h123q32 0 44.5 -14t12.5 -47z
M702 59l-4 33q-127 -108 -305 -108q-138 0 -219.5 79t-81.5 205v695q0 32 14 46.5t46 14.5h206q32 0 47 -14.5t15 -46.5v-611q0 -50 15 -69t63 -19q91 0 192 80v619q0 33 13 47t45 14h210q32 0 46 -14.5t14 -46.5v-904q0 -32 -14 -45.5t-46 -13.5h-196q-31 0 -43 12.5
t-17 46.5z" />
    <glyph glyph-name="yacute" unicode="&#xfd;" horiz-adv-x="1011" 
d="M350 963l117 -371q8 -27 14.5 -56.5t10.5 -52.5t6.5 -42.5t4 -31.5t1.5 -14q2 13 19.5 82t29.5 105l127 381q10 32 24 46.5t44 14.5h190q34 0 51.5 -16t7.5 -45l-444 -1309q-9 -29 -24 -45.5t-44 -16.5h-151q-34 0 -51.5 16t-8.5 46l88 311l-348 998q-10 29 8 45t52 16
h209q30 0 43.5 -14.5t23.5 -46.5zM807 1389l-141 -207q-27 -41 -80 -41h-162q-58 0 -33 59l82 189q26 61 84 61h219q32 0 41 -17.5t-10 -43.5z" />
    <glyph glyph-name="thorn" unicode="&#xfe;" horiz-adv-x="1122" 
d="M430 1370v-436q134 106 307 106q152 0 227.5 -82.5t75.5 -232.5v-426q0 -150 -75.5 -232.5t-227.5 -82.5q-169 0 -307 104v-434q0 -33 -12.5 -47.5t-44.5 -14.5h-211q-32 0 -46 14.5t-14 47.5v1716q0 33 14 47.5t46 14.5h209q32 0 45.5 -14.5t13.5 -47.5zM713 350v324
q0 20 -2 31.5t-8.5 26t-24 21.5t-45.5 7q-92 0 -203 -84v-328q111 -84 203 -84q28 0 45.5 7t24 21.5t8.5 26t2 31.5z" />
    <glyph glyph-name="ydieresis" unicode="&#xff;" horiz-adv-x="1011" 
d="M350 963l117 -371q8 -27 14.5 -56.5t10.5 -52.5t6.5 -42.5t4 -31.5t1.5 -14q2 13 19.5 82t29.5 105l127 381q10 32 24 46.5t44 14.5h190q34 0 51.5 -16t7.5 -45l-444 -1309q-9 -29 -24 -45.5t-44 -16.5h-151q-34 0 -51.5 16t-8.5 46l88 311l-348 998q-10 29 8 45t52 16
h209q30 0 43.5 -14.5t23.5 -46.5zM471 1389v-189q0 -33 -12.5 -46t-44.5 -13h-123q-32 0 -46 13.5t-14 45.5v189q0 32 14 46.5t46 14.5h123q32 0 44.5 -14t12.5 -47zM788 1389v-189q0 -33 -12.5 -46t-44.5 -13h-123q-32 0 -45.5 13.5t-13.5 45.5v189q0 33 13.5 47t45.5 14
h123q32 0 44.5 -14t12.5 -47z" />
    <glyph glyph-name="Amacron" unicode="&#x100;" horiz-adv-x="1159" 
d="M690 1393q58 0 76 -62l371 -1270q19 -61 -45 -61h-228q-31 0 -47 15t-24 46l-54 197h-340l-53 -197q-8 -31 -24.5 -46t-47.5 -15h-206q-64 0 -45 61l370 1270q18 62 76 62h221zM666 524l-29 111q-28 108 -64 428q0 -1 -5 -42.5t-11.5 -87.5t-15 -102.5t-18.5 -109.5
t-19 -86l-31 -111h193zM352 1761h453q33 0 47 -12.5t14 -44.5v-129q0 -32 -14 -45.5t-47 -13.5h-453q-33 0 -47 13.5t-14 45.5v129q0 32 14 44.5t47 12.5z" />
    <glyph glyph-name="amacron" unicode="&#x101;" horiz-adv-x="1069" 
d="M111 707v24q0 309 434 309q225 0 328.5 -79t103.5 -230v-670q0 -33 -13.5 -47t-45.5 -14h-189q-32 0 -43 13t-16 48l-4 31q-130 -108 -287 -108q-147 0 -224 76t-77 186v88q0 110 87.5 187t240.5 77h249v113q0 49 -26.5 71.5t-89.5 22.5q-66 0 -94.5 -19t-28.5 -65v-14
q0 -32 -14 -46t-46 -14h-186q-32 0 -45.5 14t-13.5 46zM467 238q81 0 188 75v68h-188q-70 0 -70 -64v-26q0 -53 70 -53zM307 1393h453q33 0 47 -13t14 -45v-129q0 -32 -14 -45.5t-47 -13.5h-453q-33 0 -47 13.5t-14 45.5v129q0 32 14 45t47 13z" />
    <glyph glyph-name="Abreve" unicode="&#x102;" horiz-adv-x="1159" 
d="M690 1393q58 0 76 -62l371 -1270q19 -61 -45 -61h-228q-31 0 -47 15t-24 46l-54 197h-340l-53 -197q-8 -31 -24.5 -46t-47.5 -15h-206q-64 0 -45 61l370 1270q18 62 76 62h221zM666 524l-29 111q-28 108 -64 428q0 -1 -5 -42.5t-11.5 -87.5t-15 -102.5t-18.5 -109.5
t-19 -86l-31 -111h193zM508 1755v-35q0 -67 72 -67q71 0 71 67v35q0 27 12 38t42 11h124q30 0 42 -11t12 -38v-26q0 -127 -83.5 -197t-228.5 -70q-143 0 -219 69t-76 198v26q0 27 12 38t42 11h125q29 0 41 -10.5t12 -38.5z" />
    <glyph glyph-name="abreve" unicode="&#x103;" horiz-adv-x="1069" 
d="M111 707v24q0 309 434 309q225 0 328.5 -79t103.5 -230v-670q0 -33 -13.5 -47t-45.5 -14h-189q-32 0 -43 13t-16 48l-4 31q-130 -108 -287 -108q-147 0 -224 76t-77 186v88q0 110 87.5 187t240.5 77h249v113q0 49 -26.5 71.5t-89.5 22.5q-66 0 -94.5 -19t-28.5 -65v-14
q0 -32 -14 -46t-46 -14h-186q-32 0 -45.5 14t-13.5 46zM467 238q81 0 188 75v68h-188q-70 0 -70 -64v-26q0 -53 70 -53zM500 1405v-35q0 -67 71 -67q72 0 72 67v35q0 28 12 38.5t41 10.5h125q29 0 41 -10.5t12 -38.5v-27q0 -127 -83 -196.5t-228 -69.5q-143 0 -219 68.5
t-76 197.5v27q0 27 12 38t42 11h124q30 0 42 -11t12 -38z" />
    <glyph glyph-name="Aogonek" unicode="&#x104;" horiz-adv-x="1159" 
d="M469 1393h221q58 0 76 -62l371 -1270q19 -61 -45 -61h-99q-38 0 -56.5 -32t-18.5 -85q0 -51 61 -51h47q33 0 47 -12.5t14 -44.5v-82q0 -30 -23 -45t-58 -15h-129q-31 0 -61.5 7t-64.5 24t-55.5 55t-21.5 91q0 144 112 270l-47 178h-340l-53 -197q-8 -31 -24.5 -46
t-47.5 -15h-206q-64 0 -45 61l370 1270q18 62 76 62zM666 524l-29 111q-17 62 -32.5 166t-23.5 176t-8 84q0 -2 -4 -33.5t-8.5 -65t-11.5 -82t-14 -91t-15.5 -85t-15.5 -69.5l-31 -111h193z" />
    <glyph glyph-name="aogonek" unicode="&#x105;" horiz-adv-x="1069" 
d="M111 707v24q0 309 434 309q225 0 328.5 -79t103.5 -230v-670q0 -33 -13.5 -47t-45.5 -14h-9q-42 0 -63 -31.5t-21 -85.5q0 -51 62 -51h28q33 0 47.5 -12.5t14.5 -44.5v-82q0 -30 -23.5 -45t-58.5 -15h-111q-24 0 -47.5 3.5t-52.5 15t-50.5 30t-36.5 52t-15 76.5
q0 127 90 241l-6 41q-130 -108 -287 -108q-147 0 -224 76t-77 186v88q0 110 87.5 187t240.5 77h249v113q0 49 -26.5 71.5t-89.5 22.5q-66 0 -94.5 -19t-28.5 -65v-14q0 -32 -14 -46t-46 -14h-186q-32 0 -45.5 14t-13.5 46zM467 238q81 0 188 75v68h-188q-70 0 -70 -64v-26
q0 -53 70 -53z" />
    <glyph glyph-name="Cacute" unicode="&#x106;" horiz-adv-x="1181" 
d="M1110 459v-125q0 -70 -25.5 -129.5t-81 -110.5t-157 -80.5t-240.5 -29.5t-240.5 29.5t-157 80.5t-81 110.5t-25.5 129.5v725q0 70 25.5 129.5t81 110.5t157 80.5t240.5 29.5t240.5 -29.5t157 -80.5t81 -110.5t25.5 -129.5v-94q0 -33 -12.5 -47.5t-44.5 -14.5h-211
q-32 0 -46 14.5t-14 47.5v34q0 68 -46.5 101t-125.5 33t-124.5 -33t-45.5 -101v-606q0 -68 45.5 -100.5t124.5 -32.5t125.5 32.5t46.5 100.5v66q0 32 14 46.5t46 14.5h211q32 0 44.5 -14t12.5 -47zM893 1737l-141 -207q-27 -41 -80 -41h-162q-58 0 -33 59l82 189
q26 61 84 61h219q32 0 41 -17.5t-10 -43.5z" />
    <glyph glyph-name="cacute" unicode="&#x107;" horiz-adv-x="1019" 
d="M807 1389l-141 -207q-27 -41 -80 -41h-162q-58 0 -33 59l82 189q26 61 84 61h219q32 0 41 -17.5t-10 -43.5zM526 1040q225 0 334 -83.5t109 -235.5v-31q0 -32 -14 -45.5t-46 -13.5h-194q-32 0 -46 13.5t-14 45.5v6q0 50 -28.5 69t-94.5 19t-94 -19t-28 -69v-366
q0 -50 28 -70t94 -20t94.5 20t28.5 70v24q0 32 14 46t46 14h194q32 0 46 -14t14 -46v-51q0 -151 -110 -235t-335 -84t-333.5 83.5t-108.5 235.5v418q0 151 109.5 235t334.5 84z" />
    <glyph glyph-name="Ccircumflex" unicode="&#x108;" horiz-adv-x="1181" 
d="M1110 459v-125q0 -70 -25.5 -129.5t-81 -110.5t-157 -80.5t-240.5 -29.5t-240.5 29.5t-157 80.5t-81 110.5t-25.5 129.5v725q0 70 25.5 129.5t81 110.5t157 80.5t240.5 29.5t240.5 -29.5t157 -80.5t81 -110.5t25.5 -129.5v-94q0 -33 -12.5 -47.5t-44.5 -14.5h-211
q-32 0 -46 14.5t-14 47.5v34q0 68 -46.5 101t-125.5 33t-124.5 -33t-45.5 -101v-606q0 -68 45.5 -100.5t124.5 -32.5t125.5 32.5t46.5 100.5v66q0 32 14 46.5t46 14.5h211q32 0 44.5 -14t12.5 -47zM602 1606l-24 -58q-10 -24 -32 -41.5t-52 -17.5h-160q-32 0 -42 17t9 42
l145 189q47 61 97 61h119q30 0 51.5 -15.5t44.5 -45.5l145 -189q19 -25 9 -42t-42 -17h-159q-57 0 -84 59z" />
    <glyph glyph-name="ccircumflex" unicode="&#x109;" horiz-adv-x="1019" 
d="M510 1257l-25 -57q-10 -24 -32 -41.5t-52 -17.5h-159q-32 0 -42 17t9 42l145 189q47 61 97 61h118q50 0 97 -61l145 -189q19 -25 9 -42t-42 -17h-160q-56 0 -83 59zM526 1040q225 0 334 -83.5t109 -235.5v-31q0 -32 -14 -45.5t-46 -13.5h-194q-32 0 -46 13.5t-14 45.5v6
q0 50 -28.5 69t-94.5 19t-94 -19t-28 -69v-366q0 -50 28 -70t94 -20t94.5 20t28.5 70v24q0 32 14 46t46 14h194q32 0 46 -14t14 -46v-51q0 -151 -110 -235t-335 -84t-333.5 83.5t-108.5 235.5v418q0 151 109.5 235t334.5 84z" />
    <glyph glyph-name="Cdotaccent" unicode="&#x10a;" horiz-adv-x="1181" 
d="M758 1718v-170q0 -32 -13 -45.5t-45 -13.5h-217q-32 0 -45.5 13.5t-13.5 45.5v170q0 33 13.5 47.5t45.5 14.5h217q32 0 45 -14.5t13 -47.5zM1110 459v-125q0 -70 -25.5 -129.5t-81 -110.5t-157 -80.5t-240.5 -29.5t-240.5 29.5t-157 80.5t-81 110.5t-25.5 129.5v725
q0 70 25.5 129.5t81 110.5t157 80.5t240.5 29.5t240.5 -29.5t157 -80.5t81 -110.5t25.5 -129.5v-94q0 -33 -12.5 -47.5t-44.5 -14.5h-211q-32 0 -46 14.5t-14 47.5v34q0 68 -46.5 101t-125.5 33t-124.5 -33t-45.5 -101v-606q0 -68 45.5 -100.5t124.5 -32.5t125.5 32.5
t46.5 100.5v66q0 32 14 46.5t46 14.5h211q32 0 44.5 -14t12.5 -47z" />
    <glyph glyph-name="cdotaccent" unicode="&#x10b;" horiz-adv-x="1019" 
d="M526 1040q225 0 334 -83.5t109 -235.5v-31q0 -32 -14 -45.5t-46 -13.5h-194q-32 0 -46 13.5t-14 45.5v6q0 50 -28.5 69t-94.5 19t-94 -19t-28 -69v-366q0 -50 28 -70t94 -20t94.5 20t28.5 70v24q0 32 14 46t46 14h194q32 0 46 -14t14 -46v-51q0 -151 -110 -235t-335 -84
t-333.5 83.5t-108.5 235.5v418q0 151 109.5 235t334.5 84zM676 1389v-170q0 -33 -13 -46.5t-45 -13.5h-217q-32 0 -45.5 14t-13.5 46v170q0 33 13.5 47t45.5 14h217q32 0 45 -14t13 -47z" />
    <glyph glyph-name="Ccaron" unicode="&#x10c;" horiz-adv-x="1181" 
d="M1110 459v-125q0 -70 -25.5 -129.5t-81 -110.5t-157 -80.5t-240.5 -29.5t-240.5 29.5t-157 80.5t-81 110.5t-25.5 129.5v725q0 70 25.5 129.5t81 110.5t157 80.5t240.5 29.5t240.5 -29.5t157 -80.5t81 -110.5t25.5 -129.5v-94q0 -33 -12.5 -47.5t-44.5 -14.5h-211
q-32 0 -46 14.5t-14 47.5v34q0 68 -46.5 101t-125.5 33t-124.5 -33t-45.5 -101v-606q0 -68 45.5 -100.5t124.5 -32.5t125.5 32.5t46.5 100.5v66q0 32 14 46.5t46 14.5h211q32 0 44.5 -14t12.5 -47zM565 1739l25 -58l24 58q10 24 32 41.5t52 17.5h160q32 0 42 -17t-9 -42
l-146 -189q-23 -30 -44.5 -45.5t-51.5 -15.5h-119q-30 0 -51.5 15.5t-44.5 45.5l-145 189q-19 25 -9 42t42 17h159q30 0 52 -17.5t32 -41.5z" />
    <glyph glyph-name="ccaron" unicode="&#x10d;" horiz-adv-x="1019" 
d="M485 1391l25 -58l25 58q10 25 31.5 42t51.5 17h160q32 0 42 -17t-9 -42l-145 -189q-47 -61 -97 -61h-118q-50 0 -97 61l-145 189q-19 25 -9 42t42 17h159q30 0 52 -17.5t32 -41.5zM526 1040q225 0 334 -83.5t109 -235.5v-31q0 -32 -14 -45.5t-46 -13.5h-194
q-32 0 -46 13.5t-14 45.5v6q0 50 -28.5 69t-94.5 19t-94 -19t-28 -69v-366q0 -50 28 -70t94 -20t94.5 20t28.5 70v24q0 32 14 46t46 14h194q32 0 46 -14t14 -46v-51q0 -151 -110 -235t-335 -84t-333.5 83.5t-108.5 235.5v418q0 151 109.5 235t334.5 84z" />
    <glyph glyph-name="Dcaron" unicode="&#x10e;" horiz-adv-x="1271" 
d="M645 0h-471q-51 0 -51 61v1270q0 33 13.5 47.5t45.5 14.5h463q139 0 243.5 -29.5t164 -80.5t88 -111.5t28.5 -129.5v-692q0 -69 -28.5 -129.5t-88 -111t-164 -80t-243.5 -29.5zM645 1116h-184v-840h184q81 0 133.5 33.5t52.5 100.5v573q0 67 -52.5 100t-133.5 33z
M606 1739l25 -58l24 58q10 24 32 41.5t52 17.5h160q32 0 42 -17t-9 -42l-146 -189q-23 -30 -44.5 -45.5t-51.5 -15.5h-119q-30 0 -51.5 15.5t-44.5 45.5l-145 189q-19 25 -9.5 42t41.5 17h160q30 0 52 -17.5t32 -41.5z" />
    <glyph glyph-name="dcaron" unicode="&#x10f;" horiz-adv-x="1380" 
d="M1143 1413v66q0 33 13.5 47t45.5 14h156q32 0 44.5 -14t12.5 -47v-84q0 -66 -27 -142.5t-71 -144.5q-17 -26 -37.5 -32t-42.5 1l-117 27q-58 14 -30 80q38 83 44 112q9 40 9 117zM705 61l-5 35q-142 -112 -315 -112q-152 0 -227.5 82.5t-75.5 232.5v426q0 150 75.5 232.5
t227.5 82.5q168 0 307 -106v436q0 33 13 47.5t45 14.5h211q32 0 45.5 -14.5t13.5 -47.5v-1309q0 -33 -13.5 -47t-45.5 -14h-197q-31 0 -43.5 13.5t-15.5 47.5zM410 674v-324q0 -20 1.5 -31.5t8.5 -26t24 -21.5t45 -7q86 0 203 84v328q-117 84 -203 84q-28 0 -45 -7
t-24 -21.5t-8.5 -26t-1.5 -31.5z" />
    <glyph glyph-name="Dcroat" unicode="&#x110;" horiz-adv-x="1271" 
d="M645 0h-471q-51 0 -51 61v514h-64q-32 0 -46.5 14t-14.5 46v129q0 32 14 44.5t47 12.5h64v510q0 33 13.5 47.5t45.5 14.5h463q139 0 243.5 -29.5t164 -80.5t88 -111.5t28.5 -129.5v-692q0 -69 -28.5 -129.5t-88 -111t-164 -80t-243.5 -29.5zM645 1116h-184v-295h145
q33 0 47.5 -12.5t14.5 -44.5v-129q0 -32 -14.5 -46t-47.5 -14h-145v-299h184q81 0 133.5 33.5t52.5 100.5v573q0 67 -52.5 100t-133.5 33z" />
    <glyph glyph-name="dcroat" unicode="&#x111;" horiz-adv-x="1122" 
d="M705 61l-5 35q-142 -112 -315 -112q-152 0 -227.5 82.5t-75.5 232.5v426q0 150 75.5 232.5t227.5 82.5q168 0 307 -106v156h-135q-33 0 -47 13.5t-14 45.5v108q0 32 14 45t47 13h135v55q0 33 13 47.5t45 14.5h211q32 0 45.5 -14.5t13.5 -47.5v-55h43q33 0 47 -13t14 -45
v-108q0 -32 -14 -45.5t-47 -13.5h-43v-1029q0 -33 -13.5 -47t-45.5 -14h-197q-31 0 -43.5 13.5t-15.5 47.5zM410 674v-324q0 -20 1.5 -31.5t8.5 -26t24 -21.5t45 -7q86 0 203 84v328q-117 84 -203 84q-28 0 -45 -7t-24 -21.5t-8.5 -26t-1.5 -31.5z" />
    <glyph glyph-name="Emacron" unicode="&#x112;" horiz-adv-x="1036" 
d="M903 0h-721q-32 0 -45.5 14t-13.5 47v1270q0 33 13.5 47.5t45.5 14.5h701q33 0 47 -13t14 -45v-159q0 -32 -14.5 -46t-46.5 -14h-422v-266h389q33 0 47 -12.5t14 -44.5v-150q0 -32 -14 -45.5t-47 -13.5h-389v-308h442q33 0 47.5 -12.5t14.5 -44.5v-160q0 -32 -14.5 -45.5
t-47.5 -13.5zM291 1761h452q33 0 47.5 -12.5t14.5 -44.5v-129q0 -32 -14.5 -45.5t-47.5 -13.5h-452q-33 0 -47.5 13.5t-14.5 45.5v129q0 32 14.5 44.5t47.5 12.5z" />
    <glyph glyph-name="emacron" unicode="&#x113;" horiz-adv-x="1030" 
d="M954 721v-227q0 -29 -13 -42.5t-42 -13.5h-498v-123q0 -46 29.5 -68t93.5 -22q125 0 125 90v2q0 32 14 46t46 14h176q32 0 45.5 -14t13.5 -46v-14q0 -154 -99 -236.5t-321 -82.5q-225 0 -333.5 83.5t-108.5 235.5v418q0 152 108.5 235.5t333.5 83.5q430 0 430 -319z
M401 707v-60h248v60q0 92 -125 92q-123 0 -123 -92zM289 1393h452q33 0 47.5 -13t14.5 -45v-129q0 -32 -14.5 -45.5t-47.5 -13.5h-452q-33 0 -47.5 13.5t-14.5 45.5v129q0 32 14.5 45t47.5 13z" />
    <glyph glyph-name="Ebreve" unicode="&#x114;" horiz-adv-x="1036" 
d="M903 0h-721q-32 0 -45.5 14t-13.5 47v1270q0 33 13.5 47.5t45.5 14.5h701q33 0 47 -13t14 -45v-159q0 -32 -14.5 -46t-46.5 -14h-422v-266h389q33 0 47 -12.5t14 -44.5v-150q0 -32 -14 -45.5t-47 -13.5h-389v-308h442q33 0 47.5 -12.5t14.5 -44.5v-160q0 -32 -14.5 -45.5
t-47.5 -13.5zM438 1755v-35q0 -67 72 -67t72 67v35q0 28 12 38.5t41 10.5h125q29 0 41 -10.5t12 -38.5v-26q0 -127 -83.5 -197t-227.5 -70q-143 0 -219 69t-76 198v26q0 28 12 38.5t41 10.5h125q29 0 41 -10.5t12 -38.5z" />
    <glyph glyph-name="ebreve" unicode="&#x115;" horiz-adv-x="1030" 
d="M954 721v-227q0 -29 -13 -42.5t-42 -13.5h-498v-123q0 -46 29.5 -68t93.5 -22q125 0 125 90v2q0 32 14 46t46 14h176q32 0 45.5 -14t13.5 -46v-14q0 -154 -99 -236.5t-321 -82.5q-225 0 -333.5 83.5t-108.5 235.5v418q0 152 108.5 235.5t333.5 83.5q430 0 430 -319z
M401 707v-60h248v60q0 92 -125 92q-123 0 -123 -92zM442 1405v-35q0 -67 72 -67t72 67v35q0 28 12 38.5t41 10.5h125q29 0 41 -10.5t12 -38.5v-27q0 -127 -83 -196.5t-228 -69.5q-143 0 -219 68.5t-76 197.5v27q0 28 12 38.5t41 10.5h125q29 0 41 -10.5t12 -38.5z" />
    <glyph glyph-name="Edotaccent" unicode="&#x116;" horiz-adv-x="1036" 
d="M694 1718v-170q0 -33 -12.5 -46t-44.5 -13h-217q-32 0 -46 13.5t-14 45.5v170q0 33 14 47.5t46 14.5h217q32 0 44.5 -14.5t12.5 -47.5zM903 0h-721q-32 0 -45.5 14t-13.5 47v1270q0 33 13.5 47.5t45.5 14.5h701q33 0 47 -13t14 -45v-159q0 -32 -14.5 -46t-46.5 -14h-422
v-266h389q33 0 47 -12.5t14 -44.5v-150q0 -32 -14 -45.5t-47 -13.5h-389v-308h442q33 0 47.5 -12.5t14.5 -44.5v-160q0 -32 -14.5 -45.5t-47.5 -13.5z" />
    <glyph glyph-name="edotaccent" unicode="&#x117;" horiz-adv-x="1030" 
d="M954 721v-227q0 -29 -13 -42.5t-42 -13.5h-498v-123q0 -46 29.5 -68t93.5 -22q125 0 125 90v2q0 32 14 46t46 14h176q32 0 45.5 -14t13.5 -46v-14q0 -154 -99 -236.5t-321 -82.5q-225 0 -333.5 83.5t-108.5 235.5v418q0 152 108.5 235.5t333.5 83.5q430 0 430 -319z
M401 707v-60h248v60q0 92 -125 92q-123 0 -123 -92z" />
    <glyph glyph-name="Eogonek" unicode="&#x118;" horiz-adv-x="1036" 
d="M903 0h-55q-42 0 -63 -31.5t-21 -85.5q0 -51 61 -51h47q33 0 47.5 -12.5t14.5 -44.5v-82q0 -30 -23.5 -45t-58.5 -15h-129q-31 0 -61.5 7t-64.5 24t-55.5 55t-21.5 91q0 99 53 190h-391q-32 0 -45.5 14t-13.5 47v1270q0 33 13.5 47.5t45.5 14.5h701q33 0 47 -13t14 -45
v-159q0 -32 -14.5 -46t-46.5 -14h-422v-266h389q33 0 47 -12.5t14 -44.5v-150q0 -32 -14 -45.5t-47 -13.5h-389v-308h442q33 0 47.5 -12.5t14.5 -44.5v-160q0 -32 -14.5 -45.5t-47.5 -13.5z" />
    <glyph glyph-name="eogonek" unicode="&#x119;" horiz-adv-x="1030" 
d="M954 721v-227q0 -29 -13 -42.5t-42 -13.5h-498v-123q0 -46 29.5 -68t93.5 -22q125 0 125 90v2q0 32 14 46t46 14h176q32 0 45.5 -14t13.5 -46v-14q0 -126 -67 -207q-7 -9 -33.5 -36t-41.5 -45.5t-29.5 -54.5t-14.5 -77q0 -51 61 -51h47q33 0 47.5 -12.5t14.5 -44.5v-82
q0 -30 -23.5 -45t-58.5 -15h-129q-31 0 -61.5 7t-64.5 24t-55.5 55t-21.5 91q0 90 45 176q-5 0 -17 -1t-18 -1q-225 0 -333.5 83.5t-108.5 235.5v418q0 152 108.5 235.5t333.5 83.5q430 0 430 -319zM401 707v-60h248v60q0 92 -125 92q-123 0 -123 -92z" />
    <glyph glyph-name="Ecaron" unicode="&#x11a;" horiz-adv-x="1036" 
d="M903 0h-721q-32 0 -45.5 14t-13.5 47v1270q0 33 13.5 47.5t45.5 14.5h701q33 0 47 -13t14 -45v-159q0 -32 -14.5 -46t-46.5 -14h-422v-266h389q33 0 47 -12.5t14 -44.5v-150q0 -32 -14 -45.5t-47 -13.5h-389v-308h442q33 0 47.5 -12.5t14.5 -44.5v-160q0 -32 -14.5 -45.5
t-47.5 -13.5zM494 1739l24 -58l25 58q10 24 32 41.5t52 17.5h159q32 0 42 -17t-9 -42l-145 -189q-23 -30 -44.5 -45.5t-51.5 -15.5h-119q-50 0 -97 61l-145 189q-19 25 -9 42t42 17h160q30 0 52 -17.5t32 -41.5z" />
    <glyph glyph-name="ecaron" unicode="&#x11b;" horiz-adv-x="1030" 
d="M489 1391l25 -58l25 58q10 24 32 41.5t52 17.5h159q32 0 42 -17t-9 -42l-145 -189q-47 -61 -97 -61h-118q-50 0 -97 61l-145 189q-19 25 -9 42t42 17h160q30 0 51.5 -17t31.5 -42zM954 721v-227q0 -29 -13 -42.5t-42 -13.5h-498v-123q0 -46 29.5 -68t93.5 -22
q125 0 125 90v2q0 32 14 46t46 14h176q32 0 45.5 -14t13.5 -46v-14q0 -154 -99 -236.5t-321 -82.5q-225 0 -333.5 83.5t-108.5 235.5v418q0 152 108.5 235.5t333.5 83.5q430 0 430 -319zM401 707v-60h248v60q0 92 -125 92q-123 0 -123 -92z" />
    <glyph glyph-name="Gcircumflex" unicode="&#x11c;" horiz-adv-x="1202" 
d="M600 1606l-25 -58q-10 -25 -31.5 -42t-51.5 -17h-160q-32 0 -42 17t9 42l145 189q47 61 97 61h118q50 0 97 -61l145 -189q19 -25 9 -42t-42 -17h-159q-57 0 -84 59zM614 758h435q33 0 47 -13t14 -45v-366q0 -70 -25.5 -129.5t-81 -110.5t-157 -80.5t-240.5 -29.5
t-240.5 29.5t-157 80.5t-81 110.5t-25.5 129.5v725q0 70 25.5 129.5t81 110.5t157 80.5t240.5 29.5t240.5 -29.5t157 -80.5t81 -110.5t25.5 -129.5v-74q0 -33 -12.5 -47t-44.5 -14h-211q-32 0 -46 14.5t-14 46.5v14q0 68 -46.5 101t-125.5 33t-124.5 -33t-45.5 -101v-606
q0 -68 45.5 -100.5t124.5 -32.5t125.5 32.5t46.5 100.5v88h-168q-32 0 -46.5 14t-14.5 46v159q0 32 14 45t47 13z" />
    <glyph glyph-name="gcircumflex" unicode="&#x11d;" horiz-adv-x="1122" 
d="M561 1257l-24 -57q-10 -24 -32 -41.5t-52 -17.5h-160q-32 0 -42 17t9 42l146 189q23 30 44.5 45.5t51.5 15.5h119q30 0 51.5 -15.5t44.5 -45.5l145 -189q19 -25 9 -42t-42 -17h-159q-57 0 -84 59zM385 -16q-152 0 -227.5 82.5t-75.5 232.5v426q0 150 75.5 232.5
t227.5 82.5q173 0 317 -114l5 37q5 35 16 48t43 13h195q32 0 45.5 -14t13.5 -47v-1051q0 -150 -119 -235t-346 -85h-293q-32 0 -46.5 14t-14.5 46v145q0 32 14.5 47t46.5 15h293q137 0 137 90v139q-143 -104 -307 -104zM410 674v-324q0 -20 1.5 -31.5t8.5 -26t24 -21.5
t45 -7q86 0 203 84v328q-117 84 -203 84q-28 0 -45 -7t-24 -21.5t-8.5 -26t-1.5 -31.5z" />
    <glyph glyph-name="Gbreve" unicode="&#x11e;" horiz-adv-x="1202" 
d="M614 758h435q33 0 47 -13t14 -45v-366q0 -70 -25.5 -129.5t-81 -110.5t-157 -80.5t-240.5 -29.5t-240.5 29.5t-157 80.5t-81 110.5t-25.5 129.5v725q0 70 25.5 129.5t81 110.5t157 80.5t240.5 29.5t240.5 -29.5t157 -80.5t81 -110.5t25.5 -129.5v-74q0 -33 -12.5 -47
t-44.5 -14h-211q-32 0 -46 14.5t-14 46.5v14q0 68 -46.5 101t-125.5 33t-124.5 -33t-45.5 -101v-606q0 -68 45.5 -100.5t124.5 -32.5t125.5 32.5t46.5 100.5v88h-168q-32 0 -46.5 14t-14.5 46v159q0 32 14 45t47 13zM528 1755v-35q0 -67 72 -67t72 67v35q0 28 12 38.5
t41 10.5h125q29 0 41 -10.5t12 -38.5v-26q0 -127 -83.5 -197t-227.5 -70q-143 0 -219 69t-76 198v26q0 28 12 38.5t41 10.5h125q29 0 41 -10.5t12 -38.5z" />
    <glyph glyph-name="gbreve" unicode="&#x11f;" horiz-adv-x="1122" 
d="M385 -16q-152 0 -227.5 82.5t-75.5 232.5v426q0 150 75.5 232.5t227.5 82.5q173 0 317 -114l5 37q5 35 16 48t43 13h195q32 0 45.5 -14t13.5 -47v-1051q0 -150 -119 -235t-346 -85h-293q-32 0 -46.5 14t-14.5 46v145q0 32 14.5 47t46.5 15h293q137 0 137 90v139
q-143 -104 -307 -104zM410 674v-324q0 -20 1.5 -31.5t8.5 -26t24 -21.5t45 -7q86 0 203 84v328q-117 84 -203 84q-28 0 -45 -7t-24 -21.5t-8.5 -26t-1.5 -31.5zM481 1405v-35q0 -67 72 -67t72 67v35q0 28 12 38.5t41 10.5h125q29 0 41 -10.5t12 -38.5v-27q0 -127 -83 -196.5
t-228 -69.5q-143 0 -219 68.5t-76 197.5v27q0 28 12 38.5t41 10.5h125q29 0 41 -10.5t12 -38.5z" />
    <glyph glyph-name="Gdotaccent" unicode="&#x120;" horiz-adv-x="1202" 
d="M768 1712v-170q0 -33 -12.5 -46t-44.5 -13h-217q-32 0 -46 13.5t-14 45.5v170q0 33 14 47.5t46 14.5h217q32 0 44.5 -14.5t12.5 -47.5zM614 752h435q33 0 47 -13t14 -45v-366q0 -55 -15 -104t-52 -95t-93 -79t-144 -53t-200 -20t-200 20t-144 53t-93 79t-52 95t-15 104
v725q0 70 25.5 129.5t81 110.5t157 80.5t240.5 29.5t240.5 -29.5t157 -80.5t81 -110.5t25.5 -129.5v-74q0 -33 -12.5 -47t-44.5 -14h-211q-32 0 -46 14.5t-14 46.5v14q0 68 -46.5 100.5t-125.5 32.5t-124.5 -32.5t-45.5 -100.5v-606q0 -68 45.5 -100.5t124.5 -32.5
t125.5 32.5t46.5 100.5v88h-168q-32 0 -46.5 14t-14.5 46v159q0 32 14 45t47 13z" />
    <glyph glyph-name="gdotaccent" unicode="&#x121;" horiz-adv-x="1122" 
d="M385 -16q-152 0 -227.5 82.5t-75.5 232.5v426q0 150 75.5 232.5t227.5 82.5q173 0 317 -114l5 37q5 35 16 48t43 13h195q32 0 45.5 -14t13.5 -47v-1051q0 -150 -119 -235t-346 -85h-293q-32 0 -46.5 14t-14.5 46v145q0 32 14.5 47t46.5 15h293q137 0 137 90v139
q-143 -104 -307 -104zM410 674v-324q0 -20 1.5 -31.5t8.5 -26t24 -21.5t45 -7q86 0 203 84v328q-117 84 -203 84q-28 0 -45 -7t-24 -21.5t-8.5 -26t-1.5 -31.5zM727 1389v-170q0 -33 -12.5 -46.5t-44.5 -13.5h-217q-32 0 -46 14t-14 46v170q0 32 14 46.5t46 14.5h217
q32 0 44.5 -14t12.5 -47z" />
    <glyph glyph-name="Gcommaaccent" unicode="&#x122;" horiz-adv-x="1202" 
d="M475 -229v65q0 33 14 47.5t46 14.5h155q32 0 45 -14.5t13 -47.5v-84q0 -134 -99 -287q-17 -25 -37.5 -31t-42.5 1l-116 26q-29 7 -36.5 30t5.5 50q38 83 44 113q9 40 9 117zM614 758h435q33 0 47 -13t14 -45v-366q0 -70 -25.5 -129.5t-81 -110.5t-157 -80.5t-240.5 -29.5
t-240.5 29.5t-157 80.5t-81 110.5t-25.5 129.5v725q0 70 25.5 129.5t81 110.5t157 80.5t240.5 29.5t240.5 -29.5t157 -80.5t81 -110.5t25.5 -129.5v-74q0 -33 -12.5 -47t-44.5 -14h-211q-32 0 -46 14.5t-14 46.5v14q0 68 -46.5 101t-125.5 33t-124.5 -33t-45.5 -101v-606
q0 -68 45.5 -100.5t124.5 -32.5t125.5 32.5t46.5 100.5v88h-168q-32 0 -46.5 14t-14.5 46v159q0 32 14 45t47 13z" />
    <glyph glyph-name="gcommaaccent" unicode="&#x123;" horiz-adv-x="1122" 
d="M657 1286v-65q0 -33 -13.5 -47.5t-45.5 -14.5h-156q-32 0 -44.5 14.5t-12.5 47.5v84q0 135 98 286q17 26 37.5 32t42.5 -1l117 -27q59 -14 31 -79q-3 -7 -11.5 -24.5t-10.5 -22.5t-8 -19t-7 -19t-5 -17.5t-5 -20t-3 -20.5t-2.5 -25t-1 -27.5t-0.5 -34.5zM385 -16
q-152 0 -227.5 82.5t-75.5 232.5v426q0 150 75.5 232.5t227.5 82.5q173 0 317 -114l5 37q5 35 16 48t43 13h195q32 0 45.5 -14t13.5 -47v-1051q0 -150 -119 -235t-346 -85h-293q-32 0 -46.5 14t-14.5 46v145q0 32 14.5 47t46.5 15h293q137 0 137 90v139q-143 -104 -307 -104
zM410 674v-324q0 -20 1.5 -31.5t8.5 -26t24 -21.5t45 -7q86 0 203 84v328q-117 84 -203 84q-28 0 -45 -7t-24 -21.5t-8.5 -26t-1.5 -31.5z" />
    <glyph glyph-name="Hcircumflex" unicode="&#x124;" horiz-adv-x="1292" 
d="M461 1331v-487h370v487q0 33 14 47.5t46 14.5h221q32 0 44.5 -14.5t12.5 -47.5v-1270q0 -33 -12.5 -47t-44.5 -14h-221q-32 0 -46 14.5t-14 46.5v506h-370v-506q0 -33 -13 -47t-45 -14h-221q-32 0 -45.5 14t-13.5 47v1270q0 33 13.5 47.5t45.5 14.5h221q32 0 45 -14.5
t13 -47.5zM645 1606l-24 -58q-10 -24 -32 -41.5t-52 -17.5h-160q-32 0 -42 17t9 42l145 189q47 61 97 61h119q30 0 51.5 -15.5t44.5 -45.5l145 -189q19 -25 9 -42t-42 -17h-159q-57 0 -84 59z" />
    <glyph glyph-name="hcircumflex" unicode="&#x125;" horiz-adv-x="1132" 
d="M430 1370v-432q129 102 309 102q138 0 219.5 -79t81.5 -205v-695q0 -33 -13.5 -47t-45.5 -14h-207q-32 0 -46.5 14.5t-14.5 46.5v611q0 50 -15 69t-63 19q-97 0 -205 -82v-617q0 -33 -12.5 -47t-44.5 -14h-211q-32 0 -46 14.5t-14 46.5v1309q0 33 14 47.5t46 14.5h211
q32 0 44.5 -14.5t12.5 -47.5zM266 1606l-24 -58q-10 -24 -32 -41.5t-52 -17.5h-160q-32 0 -42 17t9 42l146 189q23 30 44.5 45.5t51.5 15.5h119q30 0 51.5 -15.5t44.5 -45.5l145 -189q19 -25 9.5 -42t-41.5 -17h-160q-57 0 -84 59z" />
    <glyph glyph-name="Hbar" unicode="&#x126;" horiz-adv-x="1292" 
d="M461 1331v-153h370v153q0 33 14 47.5t46 14.5h221q32 0 44.5 -14.5t12.5 -47.5v-153h60q33 0 47 -13t14 -45v-108q0 -32 -14.5 -46t-46.5 -14h-60v-891q0 -33 -12.5 -47t-44.5 -14h-221q-32 0 -46 14.5t-14 46.5v506h-370v-506q0 -33 -13 -47t-45 -14h-221
q-32 0 -45.5 14t-13.5 47v891h-60q-32 0 -46.5 14t-14.5 46v108q0 32 14 45t47 13h60v153q0 33 13.5 47.5t45.5 14.5h221q32 0 45 -14.5t13 -47.5zM461 844h370v108h-370v-108z" />
    <glyph glyph-name="hbar" unicode="&#x127;" horiz-adv-x="1132" 
d="M430 1370v-55h137q33 0 47.5 -13t14.5 -45v-108q0 -32 -14.5 -45.5t-47.5 -13.5h-137v-152q129 102 309 102q138 0 219.5 -79t81.5 -205v-695q0 -33 -13.5 -47t-45.5 -14h-207q-32 0 -46.5 14.5t-14.5 46.5v611q0 50 -15 69t-63 19q-97 0 -205 -82v-617q0 -33 -12.5 -47
t-44.5 -14h-211q-32 0 -46 14.5t-14 46.5v1029h-41q-33 0 -47 13.5t-14 45.5v108q0 32 14 45t47 13h41v55q0 33 14 47.5t46 14.5h211q32 0 44.5 -14.5t12.5 -47.5z" />
    <glyph glyph-name="Itilde" unicode="&#x128;" horiz-adv-x="583" 
d="M461 1331v-1270q0 -33 -13 -47t-45 -14h-221q-32 0 -45.5 14t-13.5 47v1270q0 33 13.5 47.5t45.5 14.5h221q32 0 45 -14.5t13 -47.5zM182 1577q-32 0 -39 -27l-2 -8q-7 -32 -21 -42.5t-44 -10.5h-109q-56 0 -49 70l12 100q9 71 63.5 113.5t129.5 42.5q60 0 119 -23
l86 -33q62 -24 73 -24q33 0 39 26l2 8q8 31 21.5 42.5t44.5 11.5h106q59 0 52 -70l-9 -92q-7 -75 -55 -115.5t-117 -40.5q-73 0 -141 21l-88 28q-10 4 -28.5 11t-28 9.5t-17.5 2.5z" />
    <glyph glyph-name="itilde" unicode="&#x129;" 
d="M430 963v-902q0 -33 -12.5 -47t-44.5 -14h-211q-32 0 -46 14.5t-14 46.5v902q0 32 14 46.5t46 14.5h211q32 0 44.5 -14t12.5 -47zM158 1208q-32 0 -39 -26l-2 -8q-7 -32 -21.5 -43t-44.5 -11h-108q-56 0 -49 70l12 100q9 71 63 113.5t129 42.5q60 0 119 -23l86 -32
q8 -3 21.5 -8.5t21 -8.5t16.5 -5.5t15 -2.5q32 0 39 27l2 8q8 31 21 42t44 11h107q58 0 51 -70l-8 -92q-7 -75 -55 -115t-117 -40q-77 0 -142 20l-88 29q-64 22 -73 22z" />
    <glyph glyph-name="Imacron" unicode="&#x12a;" horiz-adv-x="583" 
d="M461 1331v-1270q0 -33 -13 -47t-45 -14h-221q-32 0 -45.5 14t-13.5 47v1270q0 33 13.5 47.5t45.5 14.5h221q32 0 45 -14.5t13 -47.5zM66 1761h452q33 0 47.5 -12.5t14.5 -44.5v-129q0 -32 -14.5 -45.5t-47.5 -13.5h-452q-33 0 -47.5 13.5t-14.5 45.5v129q0 32 14.5 44.5
t47.5 12.5z" />
    <glyph glyph-name="imacron" unicode="&#x12b;" 
d="M430 963v-902q0 -33 -12.5 -47t-44.5 -14h-211q-32 0 -46 14.5t-14 46.5v902q0 32 14 46.5t46 14.5h211q32 0 44.5 -14t12.5 -47zM41 1393h453q33 0 47 -13t14 -45v-129q0 -32 -14 -45.5t-47 -13.5h-453q-33 0 -47 13.5t-14 45.5v129q0 32 14 45t47 13z" />
    <glyph glyph-name="Ibreve" unicode="&#x12c;" horiz-adv-x="583" 
d="M461 1331v-1270q0 -33 -13 -47t-45 -14h-221q-32 0 -45.5 14t-13.5 47v1270q0 33 13.5 47.5t45.5 14.5h221q32 0 45 -14.5t13 -47.5zM219 1755v-35q0 -67 72 -67q71 0 71 67v35q0 27 12 38t42 11h125q29 0 41 -10.5t12 -38.5v-26q0 -127 -83.5 -197t-227.5 -70
q-143 0 -219 69t-76 198v26q0 28 12 38.5t41 10.5h125q29 0 41 -10.5t12 -38.5z" />
    <glyph glyph-name="ibreve" unicode="&#x12d;" 
d="M430 963v-902q0 -33 -12.5 -47t-44.5 -14h-211q-32 0 -46 14.5t-14 46.5v902q0 32 14 46.5t46 14.5h211q32 0 44.5 -14t12.5 -47zM195 1405v-35q0 -67 71 -67q72 0 72 67v35q0 28 12 38.5t41 10.5h125q29 0 41 -10.5t12 -38.5v-27q0 -127 -83 -196.5t-228 -69.5
q-143 0 -219 68.5t-76 197.5v27q0 28 12 38.5t41 10.5h125q30 0 42 -11t12 -38z" />
    <glyph glyph-name="Iogonek" unicode="&#x12e;" horiz-adv-x="583" 
d="M461 1331v-1270q0 -33 -13 -47t-45 -14h-67q-38 0 -57 -32.5t-19 -84.5q0 -51 62 -51h47q33 0 47 -12.5t14 -44.5v-82q0 -30 -23.5 -45t-58.5 -15h-129q-31 0 -61.5 7t-64.5 24t-55.5 55t-21.5 91q0 139 107 262v1259q0 33 13.5 47.5t45.5 14.5h221q32 0 45 -14.5
t13 -47.5z" />
    <glyph glyph-name="iogonek" unicode="&#x12f;" 
d="M328 -367h-129q-31 0 -61.5 7t-64.5 24t-55.5 55t-21.5 91q0 140 106 262v891q0 32 14 46.5t46 14.5h211q32 0 44.5 -14t12.5 -47v-902q0 -33 -12.5 -47t-44.5 -14h-49q-42 0 -63 -31.5t-21 -85.5q0 -51 61 -51h47q33 0 47.5 -12.5t14.5 -44.5v-82q0 -30 -23.5 -45
t-58.5 -15zM430 1370v-170q0 -33 -12.5 -46t-44.5 -13h-211q-32 0 -46 13.5t-14 45.5v170q0 33 14 47.5t46 14.5h211q32 0 44.5 -14.5t12.5 -47.5z" />
    <glyph glyph-name="Idotaccent" unicode="&#x130;" horiz-adv-x="583" 
d="M461 1331v-1270q0 -33 -13 -47t-45 -14h-221q-32 0 -45.5 14t-13.5 47v1270q0 33 13.5 47.5t45.5 14.5h221q32 0 45 -14.5t13 -47.5zM459 1718v-170q0 -32 -13 -45.5t-45 -13.5h-217q-32 0 -45.5 13.5t-13.5 45.5v170q0 33 13.5 47.5t45.5 14.5h217q32 0 45 -14.5
t13 -47.5z" />
    <glyph glyph-name="dotlessi" unicode="&#x131;" 
d="M430 963v-902q0 -33 -12.5 -47t-44.5 -14h-211q-32 0 -46 14.5t-14 46.5v902q0 32 14 46.5t46 14.5h211q32 0 44.5 -14t12.5 -47z" />
    <glyph glyph-name="IJ" unicode="&#x132;" horiz-adv-x="1654" 
d="M461 1331v-1270q0 -33 -13 -47t-45 -14h-221q-32 0 -45.5 14t-13.5 47v1270q0 33 13.5 47.5t45.5 14.5h221q32 0 45 -14.5t13 -47.5zM936 469v-76q0 -133 143 -133q65 0 95 31.5t30 101.5v938q0 33 14 47.5t46 14.5h221q32 0 44.5 -14.5t12.5 -47.5v-997
q0 -56 -13 -104.5t-46.5 -94.5t-84.5 -78.5t-133 -52.5t-186 -20q-105 0 -187.5 19.5t-135.5 52.5t-88 79t-49.5 95t-14.5 104v135q0 32 14 46.5t46 14.5h215q32 0 44.5 -14t12.5 -47z" />
    <glyph glyph-name="ij" unicode="&#x133;" horiz-adv-x="1064" 
d="M430 963v-902q0 -33 -12.5 -47t-44.5 -14h-211q-32 0 -46 14.5t-14 46.5v902q0 32 14 46.5t46 14.5h211q32 0 44.5 -14t12.5 -47zM430 1370v-170q0 -33 -12.5 -46t-44.5 -13h-211q-32 0 -46 13.5t-14 45.5v170q0 33 14 47.5t46 14.5h211q32 0 44.5 -14.5t12.5 -47.5z
M963 1370v-170q0 -32 -13 -45.5t-45 -13.5h-211q-32 0 -45.5 13.5t-13.5 45.5v170q0 33 13.5 47.5t45.5 14.5h211q32 0 45 -14.5t13 -47.5zM963 963v-1051q0 -150 -119 -235t-346 -85h-23q-32 0 -46.5 14t-14.5 46v145q0 32 14.5 47t46.5 15h23q137 0 137 90v1014
q0 33 12.5 47t44.5 14h211q32 0 46 -14.5t14 -46.5z" />
    <glyph glyph-name="Jcircumflex" unicode="&#x134;" horiz-adv-x="1071" 
d="M352 469v-76q0 -68 38 -100.5t106 -32.5q65 0 95 31.5t30 101.5v938q0 33 13.5 47.5t45.5 14.5h221q32 0 44.5 -14.5t12.5 -47.5v-997q0 -56 -13 -104.5t-46 -94.5t-84.5 -78.5t-133 -52.5t-185.5 -20q-130 0 -225.5 29.5t-148.5 80.5t-77.5 110.5t-24.5 129.5v135
q0 32 14 46.5t46 14.5h215q32 0 44.5 -14t12.5 -47zM774 1606l-24 -58q-10 -24 -32 -41.5t-52 -17.5h-160q-32 0 -42 17t9 42l145 189q47 61 97 61h119q30 0 51.5 -15.5t44.5 -45.5l145 -189q19 -25 9 -42t-42 -17h-159q-57 0 -84 59z" />
    <glyph glyph-name="jcircumflex" unicode="&#x135;" 
d="M430 963v-1051q0 -150 -119 -235t-346 -85h-22q-33 0 -47.5 14t-14.5 46v145q0 62 62 62h22q137 0 137 90v1014q0 33 13 47t45 14h211q32 0 45.5 -14t13.5 -47zM266 1257l-24 -57q-10 -24 -32 -41.5t-52 -17.5h-160q-32 0 -42 17t9 42l146 189q23 30 44.5 45.5t51.5 15.5
h119q30 0 51.5 -15.5t44.5 -45.5l145 -189q19 -25 9.5 -42t-41.5 -17h-160q-57 0 -84 59z" />
    <glyph glyph-name="Kcommaaccent" unicode="&#x136;" horiz-adv-x="1228" 
d="M477 -229v65q0 33 14 47.5t46 14.5h155q32 0 45 -14.5t13 -47.5v-84q0 -134 -99 -287q-17 -25 -37.5 -31t-42.5 1l-116 26q-29 7 -36.5 30t5.5 50q38 83 44 113q9 40 9 117zM766 709l440 -648q16 -23 8.5 -42t-38.5 -19h-283q-47 0 -86 61l-324 502h-22v-502
q0 -33 -13 -47t-45 -14h-221q-32 0 -45.5 14t-13.5 47v1270q0 33 13.5 47.5t45.5 14.5h221q32 0 45 -14.5t13 -47.5v-522h20l314 522q38 62 96 62h235q31 0 38 -18.5t-9 -43.5z" />
    <glyph glyph-name="kcommaaccent" unicode="&#x137;" horiz-adv-x="1046" 
d="M418 -229v65q0 33 13.5 47.5t45.5 14.5h156q32 0 44.5 -14.5t12.5 -47.5v-84q0 -66 -27 -142.5t-71 -144.5q-17 -25 -37.5 -31t-42.5 1l-117 26q-58 14 -30 80q38 83 44 113q9 40 9 117zM723 582l321 -521q16 -23 8.5 -42t-38.5 -19h-228q-47 0 -86 61l-237 388h-33v-388
q0 -33 -12.5 -47t-44.5 -14h-211q-32 0 -46 14.5t-14 46.5v1309q0 33 14 47.5t46 14.5h211q32 0 44.5 -14.5t12.5 -47.5v-676h33l211 269q49 61 96 61h227q31 0 39 -19.5t-10 -41.5z" />
    <glyph glyph-name="kgreenlandic" unicode="&#x138;" horiz-adv-x="1046" 
d="M723 582l321 -521q15 -23 8 -42t-38 -19h-228q-51 0 -86 61l-237 388h-33v-388q0 -33 -12.5 -47t-44.5 -14h-211q-32 0 -46 14.5t-14 46.5v902q0 32 14 46.5t46 14.5h211q32 0 44.5 -14t12.5 -47v-269h33l211 269q49 61 96 61h227q32 0 40 -19t-11 -42z" />
    <glyph glyph-name="Lacute" unicode="&#x139;" horiz-adv-x="964" 
d="M582 1737l-142 -207q-27 -41 -80 -41h-161q-58 0 -33 59l82 189q26 61 84 61h219q32 0 41 -17.5t-10 -43.5zM461 1331v-1055h401q33 0 47.5 -12.5t14.5 -44.5v-160q0 -32 -14.5 -45.5t-47.5 -13.5h-688q-51 0 -51 61v1270q0 33 13.5 47.5t45.5 14.5h221q32 0 45 -14.5
t13 -47.5z" />
    <glyph glyph-name="lacute" unicode="&#x13a;" 
d="M561 1737l-141 -207q-27 -41 -80 -41h-162q-58 0 -33 59l82 189q26 61 84 61h219q32 0 41 -17.5t-10 -43.5zM430 1370v-1309q0 -33 -12.5 -47t-44.5 -14h-211q-32 0 -46 14.5t-14 46.5v1309q0 33 14 47.5t46 14.5h211q32 0 44.5 -14.5t12.5 -47.5z" />
    <glyph glyph-name="Lcommaaccent" unicode="&#x13b;" horiz-adv-x="964" 
d="M352 -229v65q0 33 14 47.5t46 14.5h155q32 0 45 -14.5t13 -47.5v-84q0 -134 -99 -287q-17 -25 -37.5 -31t-42.5 1l-116 26q-29 7 -36.5 30t5.5 50q38 83 44 113q9 40 9 117zM461 1331v-1055h401q33 0 47.5 -12.5t14.5 -44.5v-160q0 -32 -14.5 -45.5t-47.5 -13.5h-688
q-51 0 -51 61v1270q0 33 13.5 47.5t45.5 14.5h221q32 0 45 -14.5t13 -47.5z" />
    <glyph glyph-name="lcommaaccent" unicode="&#x13c;" 
d="M131 -231v65q0 33 13.5 47.5t45.5 14.5h156q32 0 44.5 -14.5t12.5 -47.5v-84q0 -66 -27 -142.5t-71 -144.5q-17 -25 -37.5 -31t-42.5 1l-116 26q-29 7 -36.5 30t5.5 50q38 83 44 113q9 40 9 117zM430 1370v-1309q0 -33 -12.5 -47t-44.5 -14h-211q-32 0 -46 14.5t-14 46.5
v1309q0 33 14 47.5t46 14.5h211q32 0 44.5 -14.5t12.5 -47.5z" />
    <glyph glyph-name="Lcaron" unicode="&#x13d;" horiz-adv-x="964" 
d="M651 1413v66q0 32 14 46.5t46 14.5h155q32 0 45 -14t13 -47v-84q0 -134 -99 -287q-17 -26 -37.5 -32t-42.5 1l-116 27q-29 7 -36.5 30t5.5 50q38 83 44 112q9 40 9 117zM461 1331v-1055h401q33 0 47.5 -12.5t14.5 -44.5v-160q0 -32 -14.5 -45.5t-47.5 -13.5h-688
q-51 0 -51 61v1270q0 33 13.5 47.5t45.5 14.5h221q32 0 45 -14.5t13 -47.5z" />
    <glyph glyph-name="lcaron" unicode="&#x13e;" horiz-adv-x="792" 
d="M555 1413v66q0 33 13.5 47t45.5 14h156q32 0 44.5 -14t12.5 -47v-84q0 -66 -27 -142.5t-71 -144.5q-17 -26 -37.5 -32t-42.5 1l-117 27q-58 14 -30 80q38 83 44 112q9 40 9 117zM430 1370v-1309q0 -33 -12.5 -47t-44.5 -14h-211q-32 0 -46 14.5t-14 46.5v1309
q0 33 14 47.5t46 14.5h211q32 0 44.5 -14.5t12.5 -47.5z" />
    <glyph glyph-name="Ldot" unicode="&#x13f;" horiz-adv-x="964" 
d="M461 1331v-1055h401q33 0 47.5 -12.5t14.5 -44.5v-160q0 -32 -14.5 -45.5t-47.5 -13.5h-688q-51 0 -51 61v1270q0 33 13.5 47.5t45.5 14.5h221q32 0 45 -14.5t13 -47.5zM924 805v-170q0 -33 -13 -46.5t-45 -13.5h-217q-32 0 -45.5 14t-13.5 46v170q0 33 13.5 47t45.5 14
h217q32 0 45 -14t13 -47z" />
    <glyph glyph-name="ldot" unicode="&#x140;" horiz-adv-x="851" 
d="M430 1370v-1309q0 -33 -12.5 -47t-44.5 -14h-211q-32 0 -46 14.5t-14 46.5v1309q0 33 14 47.5t46 14.5h211q32 0 44.5 -14.5t12.5 -47.5zM852 805v-170q0 -33 -12.5 -46.5t-44.5 -13.5h-217q-32 0 -46 14t-14 46v170q0 32 14 46.5t46 14.5h217q32 0 44.5 -14t12.5 -47z
" />
    <glyph glyph-name="Lslash" unicode="&#x141;" horiz-adv-x="964" 
d="M461 1331v-452l61 24q53 23 80 -35l31 -69q22 -53 -35 -76l-137 -55v-392h401q33 0 47.5 -12.5t14.5 -44.5v-160q0 -32 -14.5 -45.5t-47.5 -13.5h-688q-51 0 -51 61v469l-33 -12q-55 -23 -78 33l-30 72q-22 52 34 75l107 43v590q0 33 13.5 47.5t45.5 14.5h221
q32 0 45 -14.5t13 -47.5z" />
    <glyph glyph-name="lslash" unicode="&#x142;" horiz-adv-x="606" 
d="M465 1370v-489l53 22q53 23 80 -35l31 -69q22 -53 -35 -76l-129 -53v-609q0 -33 -12.5 -47t-44.5 -14h-211q-32 0 -46 14.5t-14 46.5v478l-51 -21q-55 -23 -78 33l-31 72q-22 52 35 75l125 50v622q0 33 14 47.5t46 14.5h211q32 0 44.5 -14.5t12.5 -47.5z" />
    <glyph glyph-name="Nacute" unicode="&#x143;" horiz-adv-x="1292" 
d="M944 1737l-141 -207q-27 -41 -80 -41h-162q-58 0 -33 59l82 189q26 61 84 61h219q32 0 41 -17.5t-10 -43.5zM1169 1331v-1270q0 -33 -12.5 -47t-44.5 -14h-201q-38 0 -55 29l-328 544q-36 57 -88 185v-697q0 -33 -12.5 -47t-44.5 -14h-201q-32 0 -45.5 14t-13.5 47v1270
q0 33 13.5 47.5t45.5 14.5h201q39 0 51 -25l346 -580q32 -55 72 -153v696q0 33 13.5 47.5t45.5 14.5h201q32 0 44.5 -14.5t12.5 -47.5z" />
    <glyph glyph-name="nacute" unicode="&#x144;" horiz-adv-x="1132" 
d="M856 1389l-141 -207q-27 -41 -80 -41h-162q-58 0 -33 59l82 189q26 61 84 61h219q32 0 41 -17.5t-10 -43.5zM162 1024h196q32 0 44.5 -13t15.5 -46l4 -35q133 110 317 110q138 0 219.5 -79t81.5 -205v-695q0 -33 -13.5 -47t-45.5 -14h-207q-32 0 -46.5 14.5t-14.5 46.5
v611q0 50 -15 69t-63 19q-97 0 -205 -82v-617q0 -33 -12.5 -47t-44.5 -14h-211q-32 0 -46 14.5t-14 46.5v904q0 32 14 45.5t46 13.5z" />
    <glyph glyph-name="Ncommaaccent" unicode="&#x145;" horiz-adv-x="1292" 
d="M530 -231v65q0 33 14 47.5t46 14.5h155q32 0 45 -14.5t13 -47.5v-84q0 -66 -27 -142.5t-71 -144.5q-17 -25 -37.5 -31t-42.5 1l-117 26q-29 7 -36.5 30t5.5 50q38 83 44 113q9 41 9 117zM1169 1331v-1270q0 -33 -12.5 -47t-44.5 -14h-201q-38 0 -55 29l-328 544
q-36 57 -88 185v-697q0 -33 -12.5 -47t-44.5 -14h-201q-32 0 -45.5 14t-13.5 47v1270q0 33 13.5 47.5t45.5 14.5h201q39 0 51 -25l346 -580q32 -55 72 -153v696q0 33 13.5 47.5t45.5 14.5h201q32 0 44.5 -14.5t12.5 -47.5z" />
    <glyph glyph-name="ncommaaccent" unicode="&#x146;" horiz-adv-x="1132" 
d="M434 -229v65q0 33 14 47.5t46 14.5h155q32 0 45 -14.5t13 -47.5v-84q0 -134 -99 -287q-17 -25 -37.5 -31t-42.5 1l-116 26q-29 7 -36.5 30t5.5 50q38 83 44 113q9 40 9 117zM162 1024h196q32 0 44.5 -13t15.5 -46l4 -35q133 110 317 110q138 0 219.5 -79t81.5 -205v-695
q0 -33 -13.5 -47t-45.5 -14h-207q-32 0 -46.5 14.5t-14.5 46.5v611q0 50 -15 69t-63 19q-97 0 -205 -82v-617q0 -33 -12.5 -47t-44.5 -14h-211q-32 0 -46 14.5t-14 46.5v904q0 32 14 45.5t46 13.5z" />
    <glyph glyph-name="Ncaron" unicode="&#x147;" horiz-adv-x="1292" 
d="M1169 1331v-1270q0 -33 -12.5 -47t-44.5 -14h-201q-38 0 -55 29l-328 544q-36 57 -88 185v-697q0 -33 -12.5 -47t-44.5 -14h-201q-32 0 -45.5 14t-13.5 47v1270q0 33 13.5 47.5t45.5 14.5h201q39 0 51 -25l346 -580q32 -55 72 -153v696q0 33 13.5 47.5t45.5 14.5h201
q32 0 44.5 -14.5t12.5 -47.5zM621 1739l24 -58l25 58q10 24 32 41.5t52 17.5h159q32 0 42 -17t-9 -42l-145 -189q-23 -30 -44.5 -45.5t-51.5 -15.5h-119q-50 0 -97 61l-145 189q-19 25 -9 42t42 17h160q30 0 52 -17.5t32 -41.5z" />
    <glyph glyph-name="ncaron" unicode="&#x148;" horiz-adv-x="1132" 
d="M541 1391l24 -58l25 58q10 24 32 41.5t52 17.5h160q32 0 41.5 -17t-9.5 -42l-145 -189q-23 -30 -44.5 -45.5t-51.5 -15.5h-119q-30 0 -51.5 15.5t-44.5 45.5l-146 189q-19 25 -9 42t42 17h160q30 0 52 -17.5t32 -41.5zM162 1024h196q32 0 44.5 -13t15.5 -46l4 -35
q133 110 317 110q138 0 219.5 -79t81.5 -205v-695q0 -33 -13.5 -47t-45.5 -14h-207q-32 0 -46.5 14.5t-14.5 46.5v611q0 50 -15 69t-63 19q-97 0 -205 -82v-617q0 -33 -12.5 -47t-44.5 -14h-211q-32 0 -46 14.5t-14 46.5v904q0 32 14 45.5t46 13.5z" />
    <glyph glyph-name="napostrophe" unicode="&#x149;" horiz-adv-x="1132" 
d="M86 1413v66q0 33 13.5 47t45.5 14h156q32 0 44.5 -14t12.5 -47v-84q0 -66 -27 -142.5t-71 -144.5q-17 -26 -37.5 -32t-42.5 1l-117 27q-58 14 -30 80q38 83 44 112q9 40 9 117zM162 1024h196q32 0 44.5 -13t15.5 -46l4 -35q133 110 317 110q138 0 219.5 -79t81.5 -205
v-695q0 -33 -13.5 -47t-45.5 -14h-207q-32 0 -46.5 14.5t-14.5 46.5v611q0 50 -15 69t-63 19q-97 0 -205 -82v-617q0 -33 -12.5 -47t-44.5 -14h-211q-32 0 -46 14.5t-14 46.5v904q0 32 14 45.5t46 13.5z" />
    <glyph glyph-name="Eng" unicode="&#x14a;" horiz-adv-x="1292" 
d="M1169 1331v-1419q0 -151 -114 -235.5t-340 -84.5h-23q-32 0 -46.5 14t-14.5 46v145q0 32 14.5 47t46.5 15h23q137 0 137 90v86l-324 538q-36 57 -88 185v-697q0 -33 -12.5 -47t-44.5 -14h-201q-32 0 -45.5 14t-13.5 47v1270q0 33 13.5 47.5t45.5 14.5h201q39 0 51 -25
l346 -580q32 -55 72 -153v696q0 33 13.5 47.5t45.5 14.5h201q32 0 44.5 -14.5t12.5 -47.5z" />
    <glyph glyph-name="eng" unicode="&#x14b;" horiz-adv-x="1132" 
d="M162 1024h196q32 0 44.5 -13t15.5 -46l4 -35q133 110 317 110q138 0 219.5 -79t81.5 -205v-844q0 -150 -119 -235t-346 -85h-22q-32 0 -46.5 14t-14.5 46v145q0 32 14.5 47t46.5 15h22q138 0 138 90v723q0 50 -15 69t-63 19q-97 0 -205 -82v-617q0 -33 -12.5 -47
t-44.5 -14h-211q-32 0 -46 14.5t-14 46.5v904q0 32 14 45.5t46 13.5z" />
    <glyph glyph-name="Omacron" unicode="&#x14c;" horiz-adv-x="1251" 
d="M102 334v725q0 69 28.5 129.5t87.5 111t163.5 80t243.5 29.5t243.5 -29.5t164 -80t88 -111t28.5 -129.5v-725q0 -69 -28.5 -129.5t-88 -111t-164 -80t-243.5 -29.5t-243.5 29.5t-163.5 80t-87.5 111t-28.5 129.5zM811 393v606q0 67 -52.5 100.5t-133.5 33.5t-133 -33.5
t-52 -100.5v-606q0 -67 52 -100t133 -33t133.5 33t52.5 100zM399 1761h453q33 0 47 -12.5t14 -44.5v-129q0 -32 -14 -45.5t-47 -13.5h-453q-33 0 -47 13.5t-14 45.5v129q0 32 14 44.5t47 12.5z" />
    <glyph glyph-name="omacron" unicode="&#x14d;" horiz-adv-x="1101" 
d="M324 1393h452q33 0 47.5 -13t14.5 -45v-129q0 -32 -14.5 -45.5t-47.5 -13.5h-452q-33 0 -47.5 13.5t-14.5 45.5v129q0 32 14.5 45t47.5 13zM82 303v418q0 149 120.5 234t348.5 85t348.5 -85t120.5 -234v-418q0 -149 -120.5 -234t-348.5 -85t-348.5 85t-120.5 234z
M692 332v362q0 90 -141 90t-141 -90v-362q0 -92 141 -92t141 92z" />
    <glyph glyph-name="Obreve" unicode="&#x14e;" horiz-adv-x="1251" 
d="M102 334v725q0 69 28.5 129.5t87.5 111t163.5 80t243.5 29.5t243.5 -29.5t164 -80t88 -111t28.5 -129.5v-725q0 -69 -28.5 -129.5t-88 -111t-164 -80t-243.5 -29.5t-243.5 29.5t-163.5 80t-87.5 111t-28.5 129.5zM811 393v606q0 67 -52.5 100.5t-133.5 33.5t-133 -33.5
t-52 -100.5v-606q0 -67 52 -100t133 -33t133.5 33t52.5 100zM553 1755v-35q0 -67 72 -67q71 0 71 67v35q0 27 12 38t42 11h124q30 0 42 -11t12 -38v-26q0 -127 -83.5 -197t-228.5 -70q-142 0 -218 69t-76 198v26q0 28 12 38.5t41 10.5h125q29 0 41 -10.5t12 -38.5z" />
    <glyph glyph-name="obreve" unicode="&#x14f;" horiz-adv-x="1101" 
d="M82 303v418q0 149 120.5 234t348.5 85t348.5 -85t120.5 -234v-418q0 -149 -120.5 -234t-348.5 -85t-348.5 85t-120.5 234zM692 332v362q0 90 -141 90t-141 -90v-362q0 -92 141 -92t141 92zM479 1405v-35q0 -67 72 -67t72 67v35q0 28 12 38.5t41 10.5h125q29 0 41 -10.5
t12 -38.5v-27q0 -127 -83 -196.5t-228 -69.5q-143 0 -219 68.5t-76 197.5v27q0 28 12 38.5t41 10.5h125q29 0 41 -10.5t12 -38.5z" />
    <glyph glyph-name="Ohungarumlaut" unicode="&#x150;" horiz-adv-x="1251" 
d="M1055 1737l-135 -189q-41 -59 -91 -59h-153q-65 0 -33 59l105 189q36 61 92 61h184q32 0 41 -17.5t-10 -43.5zM682 1737l-104 -189q-17 -31 -33.5 -45t-46.5 -14h-154q-65 0 -43 59l74 189q25 61 82 61h184q32 0 43.5 -17.5t-2.5 -43.5zM102 334v725q0 69 28.5 129.5
t87.5 111t163.5 80t243.5 29.5t243.5 -29.5t164 -80t88 -111t28.5 -129.5v-725q0 -69 -28.5 -129.5t-88 -111t-164 -80t-243.5 -29.5t-243.5 29.5t-163.5 80t-87.5 111t-28.5 129.5zM811 393v606q0 67 -52.5 100.5t-133.5 33.5t-133 -33.5t-52 -100.5v-606q0 -67 52 -100
t133 -33t133.5 33t52.5 100z" />
    <glyph glyph-name="ohungarumlaut" unicode="&#x151;" horiz-adv-x="1101" 
d="M1008 1389l-136 -189q-41 -59 -90 -59h-153q-65 0 -33 59l104 189q36 61 93 61h184q32 0 41 -17.5t-10 -43.5zM635 1389l-105 -189q-17 -32 -33 -45.5t-46 -13.5h-154q-65 0 -43 59l74 189q25 61 82 61h184q32 0 43.5 -17.5t-2.5 -43.5zM82 303v418q0 149 120.5 234
t348.5 85t348.5 -85t120.5 -234v-418q0 -149 -120.5 -234t-348.5 -85t-348.5 85t-120.5 234zM692 332v362q0 90 -141 90t-141 -90v-362q0 -92 141 -92t141 92z" />
    <glyph glyph-name="OE" unicode="&#x152;" horiz-adv-x="1724" 
d="M102 334v725q0 69 28.5 129.5t87.5 111t163.5 80t243.5 29.5q110 0 194 -35q16 19 51 19h701q33 0 47 -13t14 -45v-159q0 -32 -14.5 -46t-46.5 -14h-422v-266h389q33 0 47 -12.5t14 -44.5v-150q0 -32 -14 -45.5t-47 -13.5h-389v-308h442q33 0 47.5 -12.5t14.5 -44.5v-160
q0 -32 -14.5 -45.5t-47.5 -13.5h-721q-38 0 -51 18q-81 -34 -194 -34q-139 0 -243.5 29.5t-163.5 80t-87.5 111t-28.5 129.5zM811 393v606q0 67 -52.5 100.5t-133.5 33.5t-133 -33.5t-52 -100.5v-606q0 -67 52 -100t133 -33t133.5 33t52.5 100z" />
    <glyph glyph-name="oe" unicode="&#x153;" horiz-adv-x="1640" 
d="M82 303v418q0 149 120.5 234t348.5 85q186 0 285 -61q113 61 299 61q430 0 430 -319v-227q0 -56 -56 -56h-497v-123q0 -46 29.5 -68t93.5 -22q125 0 125 90v2q0 32 13.5 46t45.5 14h176q32 0 45.5 -14t13.5 -46v-14q0 -154 -98.5 -236.5t-320.5 -82.5q-192 0 -299 61
q-94 -61 -285 -61q-228 0 -348.5 85t-120.5 234zM551 240q133 0 141 82v372q0 90 -141 90t-141 -90v-362q0 -92 141 -92zM1012 707v-54h248v54q0 92 -125 92q-123 0 -123 -92z" />
    <glyph glyph-name="Racute" unicode="&#x154;" horiz-adv-x="1236" 
d="M1145 864q0 -94 -51.5 -173t-161.5 -126l201 -504q10 -27 -6.5 -44t-51.5 -17h-221q-8 0 -14.5 1.5t-12 6t-9 7t-7.5 10.5l-5.5 11t-5.5 13t-5 12l-181 453h-153v-453q0 -33 -13 -47t-45 -14h-221q-32 0 -45.5 14t-13.5 47v1270q0 33 13.5 47.5t45.5 14.5h443
q139 0 243 -29.5t162.5 -80.5t86.5 -111.5t28 -129.5v-178zM625 1116h-164v-325h164q81 0 133.5 33t52.5 100v59q0 67 -52.5 100t-133.5 33zM823 1737l-141 -207q-27 -41 -80 -41h-162q-57 0 -32 59l81 189q26 61 84 61h220q32 0 40.5 -17.5t-10.5 -43.5z" />
    <glyph glyph-name="racute" unicode="&#x155;" horiz-adv-x="784" 
d="M657 1389l-141 -207q-27 -41 -80 -41h-162q-57 0 -32 59l82 189q26 61 84 61h219q32 0 40.5 -17.5t-10.5 -43.5zM707 1040q33 0 47 -13.5t14 -45.5v-160q0 -31 -14 -44.5t-47 -16.5q-171 -16 -277 -113v-586q0 -33 -12.5 -47t-44.5 -14h-211q-32 0 -46 14.5t-14 46.5v904
q0 32 14 45.5t46 13.5h196q32 0 44.5 -13t15.5 -46l6 -58q114 133 283 133z" />
    <glyph glyph-name="Rcommaaccent" unicode="&#x156;" horiz-adv-x="1236" 
d="M485 -229v65q0 33 14 47.5t46 14.5h155q32 0 45 -14.5t13 -47.5v-84q0 -134 -99 -287q-17 -25 -37 -31t-42 1l-117 26q-29 7 -36.5 30t5.5 50q38 83 44 113q9 40 9 117zM1145 864q0 -94 -51.5 -173t-161.5 -126l201 -504q10 -27 -6.5 -44t-51.5 -17h-221q-8 0 -14.5 1.5
t-12 6t-9 7t-7.5 10.5l-5.5 11t-5.5 13t-5 12l-181 453h-153v-453q0 -33 -13 -47t-45 -14h-221q-32 0 -45.5 14t-13.5 47v1270q0 33 13.5 47.5t45.5 14.5h443q139 0 243 -29.5t162.5 -80.5t86.5 -111.5t28 -129.5v-178zM625 1116h-164v-325h164q81 0 133.5 33t52.5 100v59
q0 67 -52.5 100t-133.5 33z" />
    <glyph glyph-name="rcommaaccent" unicode="&#x157;" horiz-adv-x="784" 
d="M133 -229v65q0 33 14 47.5t46 14.5h155q32 0 45 -14.5t13 -47.5v-84q0 -134 -99 -287q-17 -25 -37.5 -31t-42.5 1l-116 26q-29 7 -36.5 30t5.5 50q38 83 44 113q9 40 9 117zM707 1040q33 0 47 -13.5t14 -45.5v-160q0 -31 -14 -44.5t-47 -16.5q-171 -16 -277 -113v-586
q0 -33 -12.5 -47t-44.5 -14h-211q-32 0 -46 14.5t-14 46.5v904q0 32 14 45.5t46 13.5h196q32 0 44.5 -13t15.5 -46l6 -58q114 133 283 133z" />
    <glyph glyph-name="Rcaron" unicode="&#x158;" horiz-adv-x="1236" 
d="M1145 864q0 -94 -51.5 -173t-161.5 -126l201 -504q10 -27 -6.5 -44t-51.5 -17h-221q-8 0 -14.5 1.5t-12 6t-9 7t-7.5 10.5l-5.5 11t-5.5 13t-5 12l-181 453h-153v-453q0 -33 -13 -47t-45 -14h-221q-32 0 -45.5 14t-13.5 47v1270q0 33 13.5 47.5t45.5 14.5h443
q139 0 243 -29.5t162.5 -80.5t86.5 -111.5t28 -129.5v-178zM625 1116h-164v-325h164q81 0 133.5 33t52.5 100v59q0 67 -52.5 100t-133.5 33zM573 1739l25 -58l25 58q10 24 32 41.5t52 17.5h159q32 0 42 -17t-9 -42l-145 -189q-47 -61 -97 -61h-118q-50 0 -97 61l-145 189
q-19 25 -9 42t42 17h159q30 0 52 -17.5t32 -41.5z" />
    <glyph glyph-name="rcaron" unicode="&#x159;" horiz-adv-x="784" 
d="M367 1391l24 -58l25 58q10 24 32 41.5t52 17.5h159q32 0 42 -17t-9 -42l-145 -189q-23 -30 -44.5 -45.5t-51.5 -15.5h-119q-30 0 -51.5 15.5t-44.5 45.5l-146 189q-19 25 -9 42t42 17h160q30 0 52 -17.5t32 -41.5zM707 1040q33 0 47 -13.5t14 -45.5v-160q0 -31 -14 -44.5
t-47 -16.5q-171 -16 -277 -113v-586q0 -33 -12.5 -47t-44.5 -14h-211q-32 0 -46 14.5t-14 46.5v904q0 32 14 45.5t46 13.5h196q32 0 44.5 -13t15.5 -46l6 -58q114 133 283 133z" />
    <glyph glyph-name="Sacute" unicode="&#x15a;" horiz-adv-x="1177" 
d="M762 983v31q0 129 -160 129q-162 0 -162 -129v-21q0 -36 21 -58t45 -30l344 -117q118 -40 187 -119t69 -190v-145q0 -55 -15.5 -104t-53.5 -95t-95 -79t-145.5 -52.5t-200.5 -19.5q-139 0 -242 29.5t-160.5 80.5t-84.5 110.5t-27 129.5v137q0 33 13.5 47t45.5 14h213
q32 0 45 -14t13 -47v-92q0 -67 49.5 -98t130.5 -31t131.5 31t50.5 98v41q0 18 -6.5 33.5t-23 29t-28.5 22.5t-39 20.5t-37.5 16t-41.5 15.5l-295 111q-80 30 -135 107t-55 165v119q0 56 13.5 104.5t48.5 94.5t88.5 78.5t139 52.5t195.5 20t196.5 -19.5t141.5 -52.5t91 -79
t50.5 -95t14.5 -104v-76q0 -32 -14 -46.5t-46 -14.5h-213q-32 0 -44.5 14t-12.5 47zM874 1737l-141 -207q-27 -41 -80 -41h-161q-58 0 -33 59l82 189q26 61 84 61h219q32 0 40.5 -17.5t-10.5 -43.5z" />
    <glyph glyph-name="sacute" unicode="&#x15b;" horiz-adv-x="972" 
d="M782 1389l-141 -207q-27 -41 -80 -41h-162q-57 0 -32 59l82 189q26 61 83 61h220q32 0 40.5 -17.5t-10.5 -43.5zM610 721v29q0 65 -112 65q-111 0 -111 -65v-11q0 -38 43 -55l287 -102q205 -73 205 -222v-98q0 -53 -24.5 -101t-74 -88.5t-135.5 -64.5t-199 -24t-198.5 24
t-134 65t-72 88.5t-23.5 100.5v43q0 29 12.5 42t43.5 13h188q30 0 42.5 -12.5t12.5 -42.5v-29q0 -65 129 -65q132 0 132 65v19q0 20 -15.5 32t-64.5 31l-289 111q-61 23 -111.5 87.5t-50.5 135.5v58q0 54 21 103t66.5 92t128.5 69t194 26q90 0 161.5 -17.5t117 -45.5
t75.5 -66.5t42.5 -78t12.5 -82.5v-29q0 -31 -12.5 -44t-44.5 -13h-186q-31 0 -43.5 13t-12.5 44z" />
    <glyph glyph-name="Scircumflex" unicode="&#x15c;" horiz-adv-x="1177" 
d="M762 983v31q0 129 -160 129q-162 0 -162 -129v-21q0 -36 21 -58t45 -30l344 -117q118 -40 187 -119t69 -190v-145q0 -55 -15.5 -104t-53.5 -95t-95 -79t-145.5 -52.5t-200.5 -19.5q-139 0 -242 29.5t-160.5 80.5t-84.5 110.5t-27 129.5v137q0 33 13.5 47t45.5 14h213
q32 0 45 -14t13 -47v-92q0 -67 49.5 -98t130.5 -31t131.5 31t50.5 98v41q0 18 -6.5 33.5t-23 29t-28.5 22.5t-39 20.5t-37.5 16t-41.5 15.5l-295 111q-80 30 -135 107t-55 165v119q0 56 13.5 104.5t48.5 94.5t88.5 78.5t139 52.5t195.5 20t196.5 -19.5t141.5 -52.5t91 -79
t50.5 -95t14.5 -104v-76q0 -32 -14 -46.5t-46 -14.5h-213q-32 0 -44.5 14t-12.5 47zM588 1606l-25 -58q-10 -24 -32 -41.5t-52 -17.5h-160q-32 0 -41.5 17t9.5 42l145 189q23 30 44.5 45.5t51.5 15.5h119q30 0 51.5 -15.5t44.5 -45.5l146 -189q19 -25 9 -42t-42 -17h-160
q-57 0 -84 59z" />
    <glyph glyph-name="scircumflex" unicode="&#x15d;" horiz-adv-x="972" 
d="M485 1257l-24 -57q-10 -24 -32 -41.5t-52 -17.5h-160q-32 0 -42 17t9 42l146 189q23 30 44.5 45.5t51.5 15.5h119q30 0 51.5 -15.5t44.5 -45.5l145 -189q19 -25 9.5 -42t-41.5 -17h-160q-57 0 -84 59zM610 721v29q0 65 -112 65q-111 0 -111 -65v-11q0 -38 43 -55
l287 -102q205 -73 205 -222v-98q0 -53 -24.5 -101t-74 -88.5t-135.5 -64.5t-199 -24t-198.5 24t-134 65t-72 88.5t-23.5 100.5v43q0 29 12.5 42t43.5 13h188q30 0 42.5 -12.5t12.5 -42.5v-29q0 -65 129 -65q132 0 132 65v19q0 20 -15.5 32t-64.5 31l-289 111
q-61 23 -111.5 87.5t-50.5 135.5v58q0 54 21 103t66.5 92t128.5 69t194 26q90 0 161.5 -17.5t117 -45.5t75.5 -66.5t42.5 -78t12.5 -82.5v-29q0 -31 -12.5 -44t-44.5 -13h-186q-31 0 -43.5 13t-12.5 44z" />
    <glyph glyph-name="Scedilla" unicode="&#x15e;" horiz-adv-x="1177" 
d="M690 -80h55q183 0 183 -172q0 -90 -47.5 -135t-135.5 -45h-256q-33 0 -47 13.5t-14 45.5v43q0 32 14 45t47 13h199q19 0 19 20q0 21 -19 21h-166q-95 0 -71 81l41 140q-110 10 -192 42t-128 80.5t-68 103.5t-22 118v137q0 33 13.5 47t45.5 14h213q32 0 45 -14t13 -47v-92
q0 -67 49.5 -98t130.5 -31t131.5 31t50.5 98v41q0 18 -6.5 33.5t-23 29t-28.5 22.5t-39 20.5t-37.5 16t-41.5 15.5l-295 111q-80 30 -135 107t-55 165v119q0 56 13.5 104.5t48.5 94.5t88.5 78.5t139 52.5t195.5 20t196.5 -19.5t141.5 -52.5t91 -79t50.5 -95t14.5 -104v-76
q0 -32 -14 -46.5t-46 -14.5h-213q-32 0 -44.5 14t-12.5 47v31q0 129 -160 129q-162 0 -162 -129v-21q0 -36 21 -58t45 -30l344 -117q118 -40 187 -119t69 -190v-145q0 -62 -21 -116.5t-65.5 -102.5t-124 -81t-186.5 -44z" />
    <glyph glyph-name="scedilla" unicode="&#x15f;" horiz-adv-x="972" 
d="M541 -80h55q182 0 182 -172q0 -180 -182 -180h-256q-33 0 -47 13.5t-14 45.5v43q0 32 14 45t47 13h199q18 0 18 20q0 21 -18 21h-166q-96 0 -72 81l43 146q-144 26 -213.5 99.5t-69.5 166.5v43q0 29 12.5 42t43.5 13h188q30 0 42.5 -12.5t12.5 -42.5v-29q0 -65 129 -65
q132 0 132 65v19q0 20 -15.5 32t-64.5 31l-289 111q-61 23 -111.5 87.5t-50.5 135.5v58q0 54 21 103t66.5 92t128.5 69t194 26q90 0 161.5 -17.5t117 -45.5t75.5 -66.5t42.5 -78t12.5 -82.5v-29q0 -31 -12.5 -44t-44.5 -13h-186q-31 0 -43.5 13t-12.5 44v29q0 65 -112 65
q-111 0 -111 -65v-11q0 -38 43 -55l287 -102q205 -73 205 -222v-98q0 -104 -91 -183.5t-274 -92.5z" />
    <glyph glyph-name="Scaron" unicode="&#x160;" horiz-adv-x="1177" 
d="M762 983v31q0 129 -160 129q-162 0 -162 -129v-21q0 -36 21 -58t45 -30l344 -117q118 -40 187 -119t69 -190v-145q0 -55 -15.5 -104t-53.5 -95t-95 -79t-145.5 -52.5t-200.5 -19.5q-139 0 -242 29.5t-160.5 80.5t-84.5 110.5t-27 129.5v137q0 33 13.5 47t45.5 14h213
q32 0 45 -14t13 -47v-92q0 -67 49.5 -98t130.5 -31t131.5 31t50.5 98v41q0 18 -6.5 33.5t-23 29t-28.5 22.5t-39 20.5t-37.5 16t-41.5 15.5l-295 111q-80 30 -135 107t-55 165v119q0 56 13.5 104.5t48.5 94.5t88.5 78.5t139 52.5t195.5 20t196.5 -19.5t141.5 -52.5t91 -79
t50.5 -95t14.5 -104v-76q0 -32 -14 -46.5t-46 -14.5h-213q-32 0 -44.5 14t-12.5 47zM563 1739l25 -58l24 58q10 24 32 41.5t52 17.5h160q32 0 42 -17t-9 -42l-146 -189q-23 -30 -44.5 -45.5t-51.5 -15.5h-119q-30 0 -51.5 15.5t-44.5 45.5l-145 189q-19 25 -9.5 42t41.5 17
h160q30 0 52 -17.5t32 -41.5z" />
    <glyph glyph-name="scaron" unicode="&#x161;" horiz-adv-x="972" 
d="M469 1391l25 -58l24 58q10 24 32 41.5t52 17.5h160q32 0 42 -17t-9 -42l-146 -189q-23 -30 -44.5 -45.5t-51.5 -15.5h-119q-30 0 -51.5 15.5t-44.5 45.5l-145 189q-19 25 -9.5 42t41.5 17h160q30 0 52 -17.5t32 -41.5zM610 721v29q0 65 -112 65q-111 0 -111 -65v-11
q0 -38 43 -55l287 -102q205 -73 205 -222v-98q0 -53 -24.5 -101t-74 -88.5t-135.5 -64.5t-199 -24t-198.5 24t-134 65t-72 88.5t-23.5 100.5v43q0 29 12.5 42t43.5 13h188q30 0 42.5 -12.5t12.5 -42.5v-29q0 -65 129 -65q132 0 132 65v19q0 20 -15.5 32t-64.5 31l-289 111
q-61 23 -111.5 87.5t-50.5 135.5v58q0 54 21 103t66.5 92t128.5 69t194 26q90 0 161.5 -17.5t117 -45.5t75.5 -66.5t42.5 -78t12.5 -82.5v-29q0 -31 -12.5 -44t-44.5 -13h-186q-31 0 -43.5 13t-12.5 44z" />
    <glyph glyph-name="Tcommaaccent" unicode="&#x162;" horiz-adv-x="1017" 
d="M373 -229v65q0 33 13.5 47.5t45.5 14.5h156q32 0 44.5 -14.5t12.5 -47.5v-84q0 -66 -27 -142.5t-71 -144.5q-17 -25 -37.5 -31t-42.5 1l-117 26q-29 7 -36.5 30t5.5 50q3 7 11.5 24.5t10.5 22.5t8 19t7 19t5 17.5t5 20t3 20.5t2.5 25t1 27.5t0.5 34.5zM78 1393h862
q33 0 47 -13t14 -45v-159q0 -32 -14.5 -46t-46.5 -14h-262v-1055q0 -33 -12.5 -47t-44.5 -14h-222q-32 0 -45.5 14t-13.5 47v1055h-262q-33 0 -47.5 14t-14.5 46v159q0 32 14.5 45t47.5 13z" />
    <glyph glyph-name="tcommaaccent" unicode="&#x163;" horiz-adv-x="759" 
d="M219 -231v65q0 33 14 47.5t46 14.5h155q32 0 45 -14.5t13 -47.5v-84q0 -134 -99 -287q-17 -25 -37.5 -31t-42.5 1l-116 26q-29 7 -36.5 30t5.5 50q38 83 44 113q9 40 9 117zM498 1020h166q33 0 47 -12.5t14 -44.5v-140q0 -32 -14 -45.5t-47 -13.5h-166v-408
q0 -49 32.5 -69.5t98.5 -20.5h49q32 0 46.5 -14.5t14.5 -46.5v-146q0 -32 -14 -45.5t-47 -13.5h-103q-225 0 -315 76t-90 243v445h-90q-32 0 -46 13.5t-14 45.5v125q0 31 13 43t47 17l88 12h2v186q0 33 13.5 47.5t45.5 14.5h211q32 0 45 -14.5t13 -47.5v-186z" />
    <glyph glyph-name="Tcaron" unicode="&#x164;" horiz-adv-x="1017" 
d="M78 1393h862q33 0 47 -13t14 -45v-159q0 -32 -14.5 -46t-46.5 -14h-262v-1055q0 -33 -12.5 -47t-44.5 -14h-222q-32 0 -45.5 14t-13.5 47v1055h-262q-33 0 -47.5 14t-14.5 46v159q0 32 14.5 45t47.5 13zM483 1739l25 -58l24 58q10 24 32 41.5t52 17.5h160q32 0 42 -17
t-9 -42l-145 -189q-47 -61 -97 -61h-118q-50 0 -97 61l-145 189q-19 25 -9 42t42 17h159q30 0 52 -17.5t32 -41.5z" />
    <glyph glyph-name="tcaron" unicode="&#x165;" horiz-adv-x="860" 
d="M623 1413v66q0 33 13.5 47t45.5 14h156q32 0 44.5 -14t12.5 -47v-84q0 -66 -27 -142.5t-71 -144.5q-17 -26 -37.5 -32t-42.5 1l-117 27q-29 7 -36.5 30t5.5 50q3 7 12.5 27t11 24.5t8.5 20t8 21t5 19.5t4.5 23.5t2 25t2 31.5t0.5 37zM498 1020h166q33 0 47 -12.5
t14 -44.5v-140q0 -32 -14 -45.5t-47 -13.5h-166v-408q0 -49 32.5 -69.5t98.5 -20.5h49q32 0 46.5 -14.5t14.5 -46.5v-146q0 -32 -14 -45.5t-47 -13.5h-103q-225 0 -315 76t-90 243v445h-90q-32 0 -46 13.5t-14 45.5v125q0 31 13 43t47 17l88 12h2v186q0 33 13.5 47.5
t45.5 14.5h211q32 0 45 -14.5t13 -47.5v-186z" />
    <glyph glyph-name="Tbar" unicode="&#x166;" horiz-adv-x="1017" 
d="M78 1393h862q33 0 47 -13t14 -45v-159q0 -32 -14.5 -46t-46.5 -14h-262v-272h180q33 0 47.5 -13t14.5 -45v-108q0 -32 -14.5 -46t-47.5 -14h-180v-557q0 -33 -12.5 -47t-44.5 -14h-222q-32 0 -45.5 14t-13.5 47v557h-176q-33 0 -47.5 14t-14.5 46v108q0 32 14.5 45
t47.5 13h176v272h-262q-33 0 -47.5 14t-14.5 46v159q0 32 14.5 45t47.5 13z" />
    <glyph glyph-name="tbar" unicode="&#x167;" horiz-adv-x="759" 
d="M498 1020h166q33 0 47 -12.5t14 -44.5v-140q0 -32 -14 -45.5t-47 -13.5h-166v-105h166q33 0 47 -12.5t14 -44.5v-108q0 -32 -14.5 -46t-46.5 -14h-166v-78q0 -49 32.5 -69.5t98.5 -20.5h49q32 0 46.5 -14.5t14.5 -46.5v-146q0 -32 -14 -45.5t-47 -13.5h-103
q-225 0 -315 76t-90 243v115h-88q-33 0 -47.5 14t-14.5 46v108q0 32 14.5 44.5t47.5 12.5h88v105h-90q-32 0 -46 13.5t-14 45.5v125q0 31 13 43t47 17l88 12h2v186q0 33 13.5 47.5t45.5 14.5h211q32 0 45 -14.5t13 -47.5v-186z" />
    <glyph glyph-name="Utilde" unicode="&#x168;" horiz-adv-x="1271" 
d="M451 1331v-938q0 -67 51.5 -100t132.5 -33t133.5 33t52.5 100v938q0 33 14 47.5t46 14.5h221q32 0 44.5 -14.5t12.5 -47.5v-997q0 -69 -28.5 -129.5t-88 -111t-164 -80t-243.5 -29.5t-243 29.5t-163 80t-87.5 111t-28.5 129.5v997q0 33 13.5 47.5t45.5 14.5h221
q32 0 45 -14.5t13 -47.5zM526 1577q-32 0 -39 -27l-2 -8q-7 -32 -21 -42.5t-44 -10.5h-109q-56 0 -49 70l12 100q9 71 63.5 113.5t129.5 42.5q60 0 119 -23l86 -33q62 -24 73 -24q33 0 39 26l2 8q8 31 21.5 42.5t44.5 11.5h106q59 0 52 -70l-9 -92q-7 -75 -55 -115.5
t-117 -40.5q-73 0 -141 21l-88 28q-10 4 -28.5 11t-28 9.5t-17.5 2.5z" />
    <glyph glyph-name="utilde" unicode="&#x169;" horiz-adv-x="1120" 
d="M702 59l-4 33q-127 -108 -305 -108q-138 0 -219.5 79t-81.5 205v695q0 32 14 46.5t46 14.5h206q32 0 47 -14.5t15 -46.5v-611q0 -50 15 -69t63 -19q91 0 192 80v619q0 33 13 47t45 14h210q32 0 46 -14.5t14 -46.5v-904q0 -32 -14 -45.5t-46 -13.5h-196q-31 0 -43 12.5
t-17 46.5zM451 1208q-14 0 -25 -7t-14 -19l-2 -8q-7 -32 -21.5 -43t-44.5 -11h-108q-57 0 -50 70l13 100q9 71 63 113.5t129 42.5q60 0 119 -23l86 -32q8 -3 21.5 -8.5t21 -8.5t16.5 -5.5t15 -2.5q32 0 39 27l2 8q8 31 21 42t44 11h107q58 0 51 -70l-8 -92q-7 -75 -55 -115
t-117 -40q-77 0 -142 20l-88 29q-64 22 -73 22z" />
    <glyph glyph-name="Umacron" unicode="&#x16a;" horiz-adv-x="1271" 
d="M451 1331v-938q0 -67 51.5 -100t132.5 -33t133.5 33t52.5 100v938q0 33 14 47.5t46 14.5h221q32 0 44.5 -14.5t12.5 -47.5v-997q0 -69 -28.5 -129.5t-88 -111t-164 -80t-243.5 -29.5t-243 29.5t-163 80t-87.5 111t-28.5 129.5v997q0 33 13.5 47.5t45.5 14.5h221
q32 0 45 -14.5t13 -47.5zM410 1761h452q33 0 47.5 -12.5t14.5 -44.5v-129q0 -32 -14.5 -45.5t-47.5 -13.5h-452q-33 0 -47.5 13.5t-14.5 45.5v129q0 32 14.5 44.5t47.5 12.5z" />
    <glyph glyph-name="umacron" unicode="&#x16b;" horiz-adv-x="1120" 
d="M702 59l-4 33q-127 -108 -305 -108q-138 0 -219.5 79t-81.5 205v695q0 32 14 46.5t46 14.5h206q32 0 47 -14.5t15 -46.5v-611q0 -50 15 -69t63 -19q91 0 192 80v619q0 33 13 47t45 14h210q32 0 46 -14.5t14 -46.5v-904q0 -32 -14 -45.5t-46 -13.5h-196q-31 0 -43 12.5
t-17 46.5zM334 1393h452q33 0 47.5 -13t14.5 -45v-129q0 -32 -14.5 -45.5t-47.5 -13.5h-452q-33 0 -47.5 13.5t-14.5 45.5v129q0 32 14.5 45t47.5 13z" />
    <glyph glyph-name="Ubreve" unicode="&#x16c;" horiz-adv-x="1271" 
d="M451 1331v-938q0 -67 51.5 -100t132.5 -33t133.5 33t52.5 100v938q0 33 14 47.5t46 14.5h221q32 0 44.5 -14.5t12.5 -47.5v-997q0 -69 -28.5 -129.5t-88 -111t-164 -80t-243.5 -29.5t-243 29.5t-163 80t-87.5 111t-28.5 129.5v997q0 33 13.5 47.5t45.5 14.5h221
q32 0 45 -14.5t13 -47.5zM563 1755v-35q0 -67 72 -67t72 67v35q0 28 12 38.5t41 10.5h125q29 0 41 -10.5t12 -38.5v-26q0 -127 -83.5 -197t-227.5 -70q-143 0 -219 69t-76 198v26q0 28 12 38.5t41 10.5h125q29 0 41 -10.5t12 -38.5z" />
    <glyph glyph-name="ubreve" unicode="&#x16d;" horiz-adv-x="1120" 
d="M702 59l-4 33q-127 -108 -305 -108q-138 0 -219.5 79t-81.5 205v695q0 32 14 46.5t46 14.5h206q32 0 47 -14.5t15 -46.5v-611q0 -50 15 -69t63 -19q91 0 192 80v619q0 33 13 47t45 14h210q32 0 46 -14.5t14 -46.5v-904q0 -32 -14 -45.5t-46 -13.5h-196q-31 0 -43 12.5
t-17 46.5zM469 1405v-35q0 -67 72 -67q71 0 71 67v35q0 27 12 38t42 11h125q29 0 41 -10.5t12 -38.5v-27q0 -127 -83.5 -196.5t-228.5 -69.5q-143 0 -218.5 68.5t-75.5 197.5v27q0 28 12 38.5t41 10.5h125q29 0 41 -10.5t12 -38.5z" />
    <glyph glyph-name="Uring" unicode="&#x16e;" horiz-adv-x="1271" 
d="M885 1692v-70q0 -69 -63 -116.5t-187 -47.5t-187 47.5t-63 116.5v70q0 69 63 116t187 47t187 -47t63 -116zM713 1640v33q0 56 -78 56t-78 -56v-33q0 -57 78 -57t78 57zM451 1331v-938q0 -67 51.5 -100t132.5 -33t133.5 33t52.5 100v938q0 33 14 47.5t46 14.5h221
q32 0 44.5 -14.5t12.5 -47.5v-997q0 -69 -28.5 -129.5t-88 -111t-164 -80t-243.5 -29.5t-243 29.5t-163 80t-87.5 111t-28.5 129.5v997q0 33 13.5 47.5t45.5 14.5h221q32 0 45 -14.5t13 -47.5z" />
    <glyph glyph-name="uring" unicode="&#x16f;" horiz-adv-x="1120" 
d="M809 1339v-69q0 -69 -63 -116.5t-187 -47.5t-187 47.5t-63 116.5v69q0 69 63 116.5t187 47.5t187 -47.5t63 -116.5zM637 1288v33q0 55 -78 55t-78 -55v-33q0 -57 78 -57t78 57zM702 59l-4 33q-127 -108 -305 -108q-138 0 -219.5 79t-81.5 205v695q0 32 14 46.5t46 14.5
h206q32 0 47 -14.5t15 -46.5v-611q0 -50 15 -69t63 -19q91 0 192 80v619q0 33 13 47t45 14h210q32 0 46 -14.5t14 -46.5v-904q0 -32 -14 -45.5t-46 -13.5h-196q-31 0 -43 12.5t-17 46.5z" />
    <glyph glyph-name="Uhungarumlaut" unicode="&#x170;" horiz-adv-x="1271" 
d="M1094 1737l-136 -189q-41 -59 -90 -59h-153q-65 0 -33 59l104 189q36 61 93 61h184q32 0 41 -17.5t-10 -43.5zM721 1737l-105 -189q-17 -32 -33 -45.5t-46 -13.5h-154q-65 0 -43 59l74 189q25 61 82 61h184q32 0 43.5 -17.5t-2.5 -43.5zM451 1331v-938q0 -67 51.5 -100
t132.5 -33t133.5 33t52.5 100v938q0 33 14 47.5t46 14.5h221q32 0 44.5 -14.5t12.5 -47.5v-997q0 -69 -28.5 -129.5t-88 -111t-164 -80t-243.5 -29.5t-243 29.5t-163 80t-87.5 111t-28.5 129.5v997q0 33 13.5 47.5t45.5 14.5h221q32 0 45 -14.5t13 -47.5z" />
    <glyph glyph-name="uhungarumlaut" unicode="&#x171;" horiz-adv-x="1120" 
d="M702 59l-4 33q-127 -108 -305 -108q-138 0 -219.5 79t-81.5 205v695q0 32 14 46.5t46 14.5h206q32 0 47 -14.5t15 -46.5v-611q0 -50 15 -69t63 -19q91 0 192 80v619q0 33 13 47t45 14h210q32 0 46 -14.5t14 -46.5v-904q0 -32 -14 -45.5t-46 -13.5h-196q-31 0 -43 12.5
t-17 46.5zM1014 1389l-135 -189q-41 -59 -91 -59h-153q-65 0 -33 59l105 189q36 61 92 61h184q32 0 41 -17.5t-10 -43.5zM641 1389l-104 -189q-17 -31 -33.5 -45t-46.5 -14h-154q-65 0 -43 59l74 189q25 61 82 61h184q32 0 43.5 -17.5t-2.5 -43.5z" />
    <glyph glyph-name="Uogonek" unicode="&#x172;" horiz-adv-x="1271" 
d="M451 1331v-938q0 -67 51.5 -100t132.5 -33t133.5 33t52.5 100v938q0 33 14 47.5t46 14.5h221q32 0 44.5 -14.5t12.5 -47.5v-997q0 -125 -86 -211q-40 -40 -57.5 -59t-40 -51t-31 -62t-8.5 -68q0 -51 61 -51h47q33 0 47.5 -12.5t14.5 -44.5v-82q0 -30 -23.5 -45t-58.5 -15
h-129q-31 0 -61.5 7t-64.5 24t-55.5 55t-21.5 91q0 96 47 180q-49 -6 -104 -6q-139 0 -243 29.5t-163 80t-87.5 111t-28.5 129.5v997q0 33 13.5 47.5t45.5 14.5h221q32 0 45 -14.5t13 -47.5z" />
    <glyph glyph-name="uogonek" unicode="&#x173;" horiz-adv-x="1120" 
d="M936 -367h-109q-24 0 -47.5 3.5t-52.5 15t-50.5 30t-36.5 52t-15 76.5q0 123 77 227l-4 55q-127 -108 -305 -108q-138 0 -219.5 79t-81.5 205v695q0 32 14 46.5t46 14.5h206q32 0 47 -14.5t15 -46.5v-611q0 -50 15 -69t63 -19q91 0 192 80v619q0 33 13 47t45 14h210
q32 0 46 -14.5t14 -46.5v-904q0 -32 -14 -45.5t-46 -13.5h-14q-76 -6 -76 -117q0 -51 62 -51h26q33 0 47.5 -12.5t14.5 -44.5v-82q0 -30 -23.5 -45t-58.5 -15z" />
    <glyph glyph-name="Wcircumflex" unicode="&#x174;" horiz-adv-x="1751" 
d="M1067 1331l139 -571q25 -101 35 -221q19 148 37 219l143 573q16 62 72 62h193q61 0 45 -62l-320 -1270q-14 -61 -76 -61h-215q-51 0 -67 61l-148 590q-21 81 -28 203q-18 -137 -31 -205l-148 -588q-14 -61 -75 -61h-215q-52 0 -68 61l-320 1270q-16 62 46 62h225
q31 0 47 -15.5t24 -46.5l140 -573q6 -28 13.5 -68.5t13 -74.5t6.5 -40q12 85 36 183l146 573q8 31 24 46.5t47 15.5h207q56 0 72 -62zM881 1606l-25 -58q-10 -24 -32 -41.5t-52 -17.5h-160q-32 0 -41.5 17t9.5 42l145 189q23 30 44.5 45.5t51.5 15.5h119q30 0 51.5 -15.5
t44.5 -45.5l146 -189q19 -25 9 -42t-42 -17h-160q-57 0 -84 59z" />
    <glyph glyph-name="wcircumflex" unicode="&#x175;" horiz-adv-x="1523" 
d="M764 1257l-25 -57q-10 -24 -32 -41.5t-52 -17.5h-159q-32 0 -42 17t9 42l145 189q47 61 97 61h118q50 0 97 -61l145 -189q19 -25 9 -42t-42 -17h-160q-57 0 -84 59zM1509 963l-260 -908q-10 -34 -20.5 -44.5t-40.5 -10.5h-252q-30 0 -43 12.5t-19 42.5l-83 391
q-19 82 -19 113q-1 -2 -5 -20.5t-10.5 -46t-11.5 -46.5l-116 -391q-8 -31 -20 -43t-42 -12h-245q-30 0 -42 11.5t-20 43.5l-246 908q-9 31 8.5 46t51.5 15h200q30 0 45 -15t23 -46l119 -455q4 -20 8 -45t5.5 -41.5t2.5 -18.5q0 12 25 105l127 455q8 31 22.5 46t44.5 15h199
q55 0 68 -61l98 -455l18 -105q14 71 23 105l115 455q8 31 22.5 46t44.5 15h166q34 0 51 -15t8 -46z" />
    <glyph glyph-name="Ycircumflex" unicode="&#x176;" horiz-adv-x="1142" 
d="M391 1331l146 -407q12 -36 34 -123q17 69 41 123l172 407q12 31 27.5 46.5t44.5 15.5h217q33 0 45.5 -16.5t-0.5 -45.5l-377 -815v-455q0 -33 -12.5 -47t-44.5 -14h-221q-32 0 -46 14.5t-14 46.5v414l-378 856q-12 28 -0.5 45t43.5 17h249q54 0 74 -62zM571 1606l-24 -58
q-10 -24 -32 -41.5t-52 -17.5h-160q-32 0 -42 17t9 42l146 189q23 30 44.5 45.5t51.5 15.5h119q30 0 51.5 -15.5t44.5 -45.5l145 -189q19 -25 9.5 -42t-41.5 -17h-160q-57 0 -84 59z" />
    <glyph glyph-name="ycircumflex" unicode="&#x177;" horiz-adv-x="1011" 
d="M350 963l117 -371q8 -27 14.5 -56.5t10.5 -52.5t6.5 -42.5t4 -31.5t1.5 -14q2 13 19.5 82t29.5 105l127 381q10 32 24 46.5t44 14.5h190q34 0 51.5 -16t7.5 -45l-444 -1309q-9 -29 -24 -45.5t-44 -16.5h-151q-34 0 -51.5 16t-8.5 46l88 311l-348 998q-10 29 8 45t52 16
h209q30 0 43.5 -14.5t23.5 -46.5zM506 1257l-25 -57q-10 -24 -32 -41.5t-52 -17.5h-159q-32 0 -42 17t9 42l145 189q23 30 44.5 45.5t51.5 15.5h119q50 0 97 -61l145 -189q19 -25 9 -42t-42 -17h-160q-57 0 -84 59z" />
    <glyph glyph-name="Ydieresis" unicode="&#x178;" horiz-adv-x="1142" 
d="M391 1331l146 -407q12 -36 34 -123q17 69 41 123l172 407q12 31 27.5 46.5t44.5 15.5h217q33 0 45.5 -16.5t-0.5 -45.5l-377 -815v-455q0 -33 -12.5 -47t-44.5 -14h-221q-32 0 -46 14.5t-14 46.5v414l-378 856q-12 28 -0.5 45t43.5 17h249q54 0 74 -62zM532 1737v-189
q0 -33 -12.5 -46t-44.5 -13h-123q-32 0 -45.5 13.5t-13.5 45.5v189q0 33 13.5 47t45.5 14h123q32 0 44.5 -14t12.5 -47zM850 1737v-189q0 -33 -12.5 -46t-44.5 -13h-123q-32 0 -46 13.5t-14 45.5v189q0 32 14 46.5t46 14.5h123q32 0 44.5 -14t12.5 -47z" />
    <glyph glyph-name="Zacute" unicode="&#x179;" horiz-adv-x="1011" 
d="M147 1393h736q33 0 47 -13t14 -45v-159q0 -31 -12 -46l-475 -854h463q33 0 47 -12.5t14 -44.5v-160q0 -32 -14 -45.5t-47 -13.5h-807q-33 0 -47.5 13.5t-14.5 45.5v160q0 31 10 41l478 856h-392q-32 0 -46.5 14t-14.5 46v159q0 32 14 45t47 13zM813 1737l-141 -207
q-27 -41 -80 -41h-162q-58 0 -33 59l82 189q26 61 84 61h219q32 0 41 -17.5t-10 -43.5z" />
    <glyph glyph-name="zacute" unicode="&#x17a;" horiz-adv-x="907" 
d="M739 1389l-141 -207q-27 -41 -80 -41h-162q-57 0 -32 59l82 189q26 61 83 61h220q32 0 40.5 -17.5t-10.5 -43.5zM150 1024h624q33 0 47.5 -12.5t14.5 -44.5v-148q0 -25 -13 -45l-372 -508h364q33 0 47.5 -12.5t14.5 -44.5v-150q0 -32 -14.5 -45.5t-47.5 -13.5h-702
q-33 0 -47.5 13.5t-14.5 45.5v150q0 23 12 43l369 506h-282q-33 0 -47.5 13.5t-14.5 45.5v150q0 32 14.5 44.5t47.5 12.5z" />
    <glyph glyph-name="Zdotaccent" unicode="&#x17b;" horiz-adv-x="1011" 
d="M672 1718v-170q0 -32 -13 -45.5t-45 -13.5h-217q-32 0 -45.5 13.5t-13.5 45.5v170q0 33 13.5 47.5t45.5 14.5h217q32 0 45 -14.5t13 -47.5zM147 1393h736q33 0 47 -13t14 -45v-159q0 -31 -12 -46l-475 -854h463q33 0 47 -12.5t14 -44.5v-160q0 -32 -14 -45.5t-47 -13.5
h-807q-33 0 -47.5 13.5t-14.5 45.5v160q0 31 10 41l478 856h-392q-32 0 -46.5 14t-14.5 46v159q0 32 14 45t47 13z" />
    <glyph glyph-name="zdotaccent" unicode="&#x17c;" horiz-adv-x="907" 
d="M150 1024h624q33 0 47.5 -12.5t14.5 -44.5v-148q0 -25 -13 -45l-372 -508h364q33 0 47.5 -12.5t14.5 -44.5v-150q0 -32 -14.5 -45.5t-47.5 -13.5h-702q-33 0 -47.5 13.5t-14.5 45.5v150q0 23 12 43l369 506h-282q-33 0 -47.5 13.5t-14.5 45.5v150q0 32 14.5 44.5
t47.5 12.5zM623 1389v-170q0 -33 -13 -46.5t-45 -13.5h-217q-32 0 -45.5 14t-13.5 46v170q0 33 13.5 47t45.5 14h217q32 0 45 -14t13 -47z" />
    <glyph glyph-name="Zcaron" unicode="&#x17d;" horiz-adv-x="1011" 
d="M492 1739l24 -58l25 58q10 24 32 41.5t52 17.5h159q32 0 42 -17t-9 -42l-145 -189q-47 -61 -97 -61h-118q-50 0 -97 61l-145 189q-19 25 -9 42t42 17h160q30 0 52 -17.5t32 -41.5zM147 1393h736q33 0 47 -13t14 -45v-159q0 -31 -12 -46l-475 -854h463q33 0 47 -12.5
t14 -44.5v-160q0 -32 -14 -45.5t-47 -13.5h-807q-33 0 -47.5 13.5t-14.5 45.5v160q0 31 10 41l478 856h-392q-32 0 -46.5 14t-14.5 46v159q0 32 14 45t47 13z" />
    <glyph glyph-name="zcaron" unicode="&#x17e;" horiz-adv-x="907" 
d="M442 1391l25 -58l25 58q10 25 31.5 42t51.5 17h160q32 0 42 -17t-9 -42l-145 -189q-47 -61 -97 -61h-118q-50 0 -97 61l-145 189q-19 25 -9 42t42 17h159q30 0 52 -17.5t32 -41.5zM150 1024h624q33 0 47.5 -12.5t14.5 -44.5v-148q0 -25 -13 -45l-372 -508h364
q33 0 47.5 -12.5t14.5 -44.5v-150q0 -32 -14.5 -45.5t-47.5 -13.5h-702q-33 0 -47.5 13.5t-14.5 45.5v150q0 23 12 43l369 506h-282q-33 0 -47.5 13.5t-14.5 45.5v150q0 32 14.5 44.5t47.5 12.5z" />
    <glyph glyph-name="longs" unicode="&#x17f;" horiz-adv-x="741" 
d="M190 1020h3v100q0 150 118.5 235t345.5 85h23q32 0 46.5 -14t14.5 -46v-145q0 -32 -14.5 -46.5t-46.5 -14.5h-23q-137 0 -137 -91v-1022q0 -33 -12.5 -47t-44.5 -14h-211q-32 0 -45.5 14t-13.5 47v703h-103q-32 0 -45.5 13.5t-13.5 45.5v125q0 31 12.5 43t46.5 17z" />
    <glyph glyph-name="florin" unicode="&#x192;" horiz-adv-x="1204" 
d="M1020 1184h-49q-138 0 -146 -90l-20 -189h125q33 0 47 -12.5t14 -44.5v-139q0 -32 -14.5 -46t-46.5 -14h-150l-78 -760q-15 -149 -142.5 -234t-354.5 -85h-21q-33 0 -47 13.5t-14 45.5v146q0 32 14.5 46.5t46.5 14.5h47q138 0 146 90l74 723h-97q-32 0 -45.5 14t-13.5 46
v137q0 32 13.5 45.5t45.5 13.5h123l23 225q15 150 142.5 235t354.5 85h23q33 0 47 -13.5t14 -45.5v-146q0 -32 -14.5 -46.5t-46.5 -14.5z" />
    <glyph glyph-name="Aringacute" unicode="&#x1fa;" horiz-adv-x="1159" 
d="M690 1393q58 0 76 -62l371 -1270q19 -61 -45 -61h-228q-31 0 -47 15t-24 46l-54 197h-340l-53 -197q-8 -31 -24.5 -46t-47.5 -15h-206q-64 0 -45 61l370 1270q18 62 76 62h221zM829 1692v-70q0 -69 -62.5 -116.5t-186.5 -47.5t-187 47.5t-63 116.5v70q0 102 119 143
l34 78q26 61 84 61h219q32 0 41.5 -18t-10.5 -43l-74 -92q86 -45 86 -129zM666 524l-29 111q-28 108 -64 428q0 -1 -5 -42.5t-11.5 -87.5t-15 -102.5t-18.5 -109.5t-19 -86l-31 -111h193zM657 1640v33q0 56 -77 56q-78 0 -78 -56v-33q0 -57 78 -57q77 0 77 57z" />
    <glyph glyph-name="aringacute" unicode="&#x1fb;" horiz-adv-x="1069" 
d="M111 707v24q0 309 434 309q225 0 328.5 -79t103.5 -230v-670q0 -33 -13.5 -47t-45.5 -14h-189q-32 0 -43 13t-16 48l-4 31q-130 -108 -287 -108q-147 0 -224 76t-77 186v88q0 110 87.5 187t240.5 77h249v113q0 49 -26.5 71.5t-89.5 22.5q-66 0 -94.5 -19t-28.5 -65v-14
q0 -32 -14 -46t-46 -14h-186q-32 0 -45.5 14t-13.5 46zM799 1339v-69q0 -69 -63 -116.5t-187 -47.5t-187 47.5t-63 116.5v69q0 49 32.5 89t96.5 59l61 139q27 62 84 62h220q32 0 40.5 -18t-10.5 -44l-108 -158q84 -46 84 -129zM467 238q81 0 188 75v68h-188q-70 0 -70 -64
v-26q0 -53 70 -53zM627 1288v33q0 55 -78 55t-78 -55v-33q0 -57 78 -57t78 57z" />
    <glyph glyph-name="AEacute" unicode="&#x1fc;" horiz-adv-x="1705" 
d="M877 1393h675q33 0 47.5 -13t14.5 -45v-155q0 -32 -14.5 -46t-47.5 -14h-422v-272h390q33 0 47 -12.5t14 -44.5v-146q0 -32 -14 -45.5t-47 -13.5h-390v-314h443q33 0 47 -12.5t14 -44.5v-156q0 -32 -14 -45.5t-47 -13.5h-703q-32 0 -45.5 14t-13.5 47v197h-346l-115 -197
q-11 -19 -18 -29.5t-21.5 -21t-31.5 -10.5h-207q-34 0 -47.5 16.5t2.5 44.5l764 1272q36 60 86 60zM739 723l-116 -199h188v336q-25 -50 -72 -137zM1311 1737l-142 -207q-27 -41 -79 -41h-162q-58 0 -33 59l82 189q26 61 84 61h219q32 0 41 -17.5t-10 -43.5z" />
    <glyph glyph-name="aeacute" unicode="&#x1fd;" horiz-adv-x="1603" 
d="M1071 1389l-141 -207q-27 -41 -80 -41h-162q-58 0 -33 59l82 189q26 61 84 61h219q32 0 41 -17.5t-10 -43.5zM1528 721v-227q0 -29 -13 -42.5t-42 -13.5h-498v-123q0 -46 29.5 -68t93.5 -22q125 0 125 90v2q0 32 13.5 46t45.5 14h176q32 0 46 -14t14 -46v-14
q0 -154 -99 -236.5t-321 -82.5q-267 0 -373 118q-159 -118 -346 -118q-147 0 -224 76t-77 186v88q0 110 87.5 187t240.5 77h249v121q0 86 -116 86q-66 0 -94.5 -19t-28.5 -65v-14q0 -32 -14 -46t-46 -14h-186q-32 0 -45.5 14t-13.5 46v24q0 309 434 309q177 0 266 -82
q110 82 287 82q430 0 430 -319zM467 238q81 0 188 75v68h-188q-70 0 -70 -64v-26q0 -53 70 -53zM975 707v-54h248v54q0 92 -125 92q-123 0 -123 -92z" />
    <glyph glyph-name="Oslashacute" unicode="&#x1fe;" horiz-adv-x="1251" 
d="M102 330v725q0 69 28.5 129.5t87.5 111t163.5 80t243.5 29.5q149 0 256 -35l18 35q15 30 30.5 45.5t43.5 15.5h74q17 0 24 -9.5t5.5 -22.5t-9.5 -29l-51 -100q133 -93 133 -250v-725q0 -69 -28.5 -129.5t-88 -111t-164 -80t-243.5 -29.5q-146 0 -258 32l-17 -30
q-19 -36 -33.5 -49t-44.5 -13h-69q-23 0 -28.5 18.5t7.5 43.5l49 96q-129 95 -129 252zM811 389v508l-309 -614q49 -27 123 -27q81 0 133.5 33t52.5 100zM440 995v-501l305 608q-48 26 -120 26q-81 0 -133 -33t-52 -100zM909 1737l-141 -207q-27 -41 -80 -41h-162
q-57 0 -32 59l81 189q26 61 84 61h220q32 0 40.5 -17.5t-10.5 -43.5z" />
    <glyph glyph-name="oslashacute" unicode="&#x1ff;" horiz-adv-x="1101" 
d="M82 303v418q0 149 120.5 234t348.5 85q96 0 188 -20l13 22q10 19 17.5 30.5t22.5 21.5t33 10h72q50 0 16 -62l-39 -71q146 -84 146 -250v-418q0 -149 -120.5 -234t-348.5 -85q-92 0 -191 18l-8 -16q-19 -35 -35 -48.5t-47 -13.5h-65q-24 0 -26 21.5t11 40.5l35 67
q-143 84 -143 250zM692 332v295l-203 -383q18 -4 62 -4q141 0 141 92zM410 694v-297l202 381q-27 6 -61 6q-141 0 -141 -90zM823 1389l-141 -207q-27 -41 -80 -41h-162q-57 0 -32 59l81 189q26 61 84 61h220q32 0 40.5 -17.5t-10.5 -43.5z" />
    <glyph glyph-name="Scommaaccent" unicode="&#x218;" horiz-adv-x="1177" 
d="M461 -231v65q0 33 13.5 47.5t45.5 14.5h156q32 0 44.5 -14.5t12.5 -47.5v-84q0 -66 -27 -142.5t-71 -144.5q-17 -25 -37.5 -31t-42.5 1l-117 26q-58 14 -30 80q38 83 44 113q9 40 9 117zM762 983v31q0 129 -160 129q-162 0 -162 -129v-21q0 -36 21 -58t45 -30l344 -117
q118 -40 187 -119t69 -190v-145q0 -55 -15.5 -104t-53.5 -95t-95 -79t-145.5 -52.5t-200.5 -19.5q-139 0 -242 29.5t-160.5 80.5t-84.5 110.5t-27 129.5v137q0 33 13.5 47t45.5 14h213q32 0 45 -14t13 -47v-92q0 -67 49.5 -98t130.5 -31t131.5 31t50.5 98v41q0 18 -6.5 33.5
t-23 29t-28.5 22.5t-39 20.5t-37.5 16t-41.5 15.5l-295 111q-80 30 -135 107t-55 165v119q0 56 13.5 104.5t48.5 94.5t88.5 78.5t139 52.5t195.5 20t196.5 -19.5t141.5 -52.5t91 -79t50.5 -95t14.5 -104v-76q0 -32 -14 -46.5t-46 -14.5h-213q-32 0 -44.5 14t-12.5 47z" />
    <glyph glyph-name="scommaaccent" unicode="&#x219;" horiz-adv-x="972" 
d="M367 -231v65q0 33 13.5 47.5t45.5 14.5h156q32 0 44.5 -14.5t12.5 -47.5v-84q0 -66 -27 -142.5t-71 -144.5q-17 -25 -37.5 -31t-42.5 1l-117 26q-29 7 -36.5 30t5.5 50q3 7 11.5 24.5t10.5 22.5t8 19t7 19t5 17.5t5 20t3 20.5t2.5 25t1 27.5t0.5 34.5zM610 721v29
q0 65 -112 65q-111 0 -111 -65v-11q0 -38 43 -55l287 -102q205 -73 205 -222v-98q0 -53 -24.5 -101t-74 -88.5t-135.5 -64.5t-199 -24t-198.5 24t-134 65t-72 88.5t-23.5 100.5v43q0 29 12.5 42t43.5 13h188q30 0 42.5 -12.5t12.5 -42.5v-29q0 -65 129 -65q132 0 132 65v19
q0 20 -15.5 32t-64.5 31l-289 111q-61 23 -111.5 87.5t-50.5 135.5v58q0 54 21 103t66.5 92t128.5 69t194 26q90 0 161.5 -17.5t117 -45.5t75.5 -66.5t42.5 -78t12.5 -82.5v-29q0 -31 -12.5 -44t-44.5 -13h-186q-31 0 -43.5 13t-12.5 44z" />
    <glyph glyph-name="dotlessj" unicode="&#x237;" 
d="M430 963v-1051q0 -150 -119 -235t-346 -85h-22q-33 0 -47.5 14t-14.5 46v145q0 62 62 62h22q137 0 137 90v1014q0 33 13 47t45 14h211q32 0 45.5 -14t13.5 -47z" />
    <glyph glyph-name="circumflex" unicode="&#x2c6;" horiz-adv-x="733" 
d="M367 1257l-25 -57q-10 -24 -32 -41.5t-52 -17.5h-160q-32 0 -41.5 17t9.5 42l145 189q23 30 44.5 45.5t51.5 15.5h119q30 0 51.5 -15.5t44.5 -45.5l146 -189q19 -25 9 -42t-42 -17h-160q-57 0 -84 59z" />
    <glyph glyph-name="caron" unicode="&#x2c7;" horiz-adv-x="733" 
d="M342 1391l25 -58l24 58q10 24 32 41.5t52 17.5h160q32 0 42 -17t-9 -42l-146 -189q-23 -30 -44.5 -45.5t-51.5 -15.5h-119q-30 0 -51.5 15.5t-44.5 45.5l-145 189q-19 25 -9.5 42t41.5 17h160q30 0 52 -17.5t32 -41.5z" />
    <glyph glyph-name="breve" unicode="&#x2d8;" horiz-adv-x="872" 
d="M365 1405v-35q0 -67 71 -67q72 0 72 67v35q0 28 12 38.5t41 10.5h125q29 0 41 -10.5t12 -38.5v-27q0 -127 -83 -196.5t-228 -69.5q-143 0 -219 68.5t-76 197.5v27q0 28 12 38.5t41 10.5h125q30 0 42 -11t12 -38z" />
    <glyph glyph-name="dotaccent" unicode="&#x2d9;" horiz-adv-x="518" 
d="M426 1389v-170q0 -33 -12.5 -46.5t-44.5 -13.5h-217q-32 0 -46 14t-14 46v170q0 32 14 46.5t46 14.5h217q32 0 44.5 -14t12.5 -47z" />
    <glyph glyph-name="ring" unicode="&#x2da;" horiz-adv-x="716" 
d="M608 1339v-69q0 -69 -63 -116.5t-187 -47.5t-186.5 47.5t-62.5 116.5v69q0 69 62.5 116.5t186.5 47.5t187 -47.5t63 -116.5zM436 1288v33q0 55 -78 55q-77 0 -77 -55v-33q0 -57 77 -57q78 0 78 57z" />
    <glyph glyph-name="ogonek" unicode="&#x2db;" horiz-adv-x="481" 
d="M385 -367h-139q-94 0 -153.5 48t-59.5 133q0 63 22.5 122t75.5 134q36 56 84 51l98 -10q42 -4 51.5 -24t-14.5 -42q-82 -76 -82 -162q0 -31 21 -41t57 -10h39q33 0 47 -12.5t14 -44.5v-82q0 -32 -14.5 -46t-46.5 -14z" />
    <glyph glyph-name="tilde" unicode="&#x2dc;" horiz-adv-x="823" 
d="M299 1208q-14 0 -25 -7t-14 -19l-2 -8q-7 -32 -21 -43t-44 -11h-109q-56 0 -49 70l12 100q9 71 63.5 113.5t129.5 42.5q59 0 118 -23l86 -32q8 -3 21.5 -8.5t21 -8.5t16.5 -5.5t15 -2.5q32 0 39 27l2 8q7 31 21 42t45 11h106q58 0 51 -70l-8 -92q-7 -75 -55 -115
t-117 -40q-76 0 -141 20l-88 29q-64 22 -74 22z" />
    <glyph glyph-name="hungarumlaut" unicode="&#x2dd;" horiz-adv-x="864" 
d="M807 1389l-135 -189q-41 -59 -90 -59h-154q-65 0 -33 59l105 189q36 61 92 61h184q32 0 41 -17.5t-10 -43.5zM434 1389l-104 -189q-17 -31 -33.5 -45t-46.5 -14h-154q-65 0 -43 59l74 189q25 61 82 61h184q32 0 43.5 -17.5t-2.5 -43.5z" />
    <glyph glyph-name="Delta" unicode="&#x394;" horiz-adv-x="839" 
d="M225 911h389q54 0 54 -53v-389q0 -53 -54 -53h-389q-53 0 -53 53v389q0 53 53 53z" />
    <glyph glyph-name="Omega" unicode="&#x3a9;" horiz-adv-x="839" 
d="M127 662q0 120 85.5 206t205.5 86t206.5 -86t86.5 -206t-86.5 -205.5t-206.5 -85.5t-205.5 85.5t-85.5 205.5zM170 662q0 -104 72 -176t176 -72q103 0 176.5 72t73.5 176q0 103 -73.5 176t-176.5 73q-104 0 -176 -73t-72 -176z" />
    <glyph glyph-name="mu" unicode="&#x3bc;" horiz-adv-x="1120" 
d="M702 59l-4 33q-127 -108 -292 -108h-3l17 -330q2 -32 -12 -47t-46 -15h-210q-32 0 -46 14.5t-14 47.5v1309q0 32 14 46.5t46 14.5h206q32 0 47 -14.5t15 -46.5v-611q0 -50 15 -69t63 -19q91 0 192 80v619q0 33 13 47t45 14h210q32 0 46 -14.5t14 -46.5v-904
q0 -32 -14 -45.5t-46 -13.5h-196q-32 0 -44.5 13t-15.5 46z" />
    <glyph glyph-name="pi" unicode="&#x3c0;" horiz-adv-x="839" 
d="M125 944h588q18 0 25.5 -12t5 -29.5t-12.5 -34.5l-274 -444q-13 -22 -36.5 -22t-37.5 22l-274 444q-17 25 -14 50.5t30 25.5z" />
    <glyph glyph-name="Wgrave" unicode="&#x1e80;" horiz-adv-x="1751" 
d="M1067 1331l139 -571q25 -101 35 -221q19 148 37 219l143 573q16 62 72 62h193q61 0 45 -62l-320 -1270q-14 -61 -76 -61h-215q-51 0 -67 61l-148 590q-21 81 -28 203q-18 -137 -31 -205l-148 -588q-14 -61 -75 -61h-215q-52 0 -68 61l-320 1270q-16 62 46 62h225
q31 0 47 -15.5t24 -46.5l140 -573q6 -28 13.5 -68.5t13 -74.5t6.5 -40q12 85 36 183l146 573q8 31 24 46.5t47 15.5h207q56 0 72 -62zM727 1530l-141 207q-19 26 -10.5 43.5t40.5 17.5h220q58 0 84 -61l81 -189q25 -59 -32 -59h-162q-53 0 -80 41z" />
    <glyph glyph-name="wgrave" unicode="&#x1e81;" horiz-adv-x="1523" 
d="M1509 963l-260 -908q-10 -34 -20.5 -44.5t-40.5 -10.5h-252q-30 0 -43 12.5t-19 42.5l-83 391q-19 82 -19 113q-1 -2 -5 -20.5t-10.5 -46t-11.5 -46.5l-116 -391q-8 -31 -20 -43t-42 -12h-245q-30 0 -42 11.5t-20 43.5l-246 908q-9 31 8.5 46t51.5 15h200q30 0 45 -15
t23 -46l119 -455q4 -20 8 -45t5.5 -41.5t2.5 -18.5q0 12 25 105l127 455q8 31 22.5 46t44.5 15h199q55 0 68 -61l98 -455l18 -105q14 71 23 105l115 455q8 31 22.5 46t44.5 15h166q34 0 51 -15t8 -46zM631 1182l-142 207q-19 26 -10 43.5t41 17.5h219q58 0 84 -61l82 -189
q25 -59 -33 -59h-161q-53 0 -80 41z" />
    <glyph glyph-name="Wacute" unicode="&#x1e82;" horiz-adv-x="1751" 
d="M1067 1331l139 -571q25 -101 35 -221q19 148 37 219l143 573q16 62 72 62h193q61 0 45 -62l-320 -1270q-14 -61 -76 -61h-215q-51 0 -67 61l-148 590q-21 81 -28 203q-18 -137 -31 -205l-148 -588q-14 -61 -75 -61h-215q-52 0 -68 61l-320 1270q-16 62 46 62h225
q31 0 47 -15.5t24 -46.5l140 -573q6 -28 13.5 -68.5t13 -74.5t6.5 -40q12 85 36 183l146 573q8 31 24 46.5t47 15.5h207q56 0 72 -62zM1186 1737l-142 -207q-27 -41 -79 -41h-162q-58 0 -33 59l82 189q26 61 84 61h219q32 0 41 -17.5t-10 -43.5z" />
    <glyph glyph-name="wacute" unicode="&#x1e83;" horiz-adv-x="1523" 
d="M1092 1389l-142 -207q-27 -41 -80 -41h-161q-58 0 -33 59l82 189q26 61 84 61h219q32 0 41 -17.5t-10 -43.5zM1509 963l-260 -908q-10 -34 -20.5 -44.5t-40.5 -10.5h-252q-30 0 -43 12.5t-19 42.5l-83 391q-19 82 -19 113q-1 -2 -5 -20.5t-10.5 -46t-11.5 -46.5
l-116 -391q-8 -31 -20 -43t-42 -12h-245q-30 0 -42 11.5t-20 43.5l-246 908q-9 31 8.5 46t51.5 15h200q30 0 45 -15t23 -46l119 -455q4 -20 8 -45t5.5 -41.5t2.5 -18.5q0 12 25 105l127 455q8 31 22.5 46t44.5 15h199q55 0 68 -61l98 -455l18 -105q14 71 23 105l115 455
q8 31 22.5 46t44.5 15h166q34 0 51 -15t8 -46z" />
    <glyph glyph-name="Wdieresis" unicode="&#x1e84;" horiz-adv-x="1751" 
d="M1067 1331l139 -571q25 -101 35 -221q19 148 37 219l143 573q16 62 72 62h193q61 0 45 -62l-320 -1270q-14 -61 -76 -61h-215q-51 0 -67 61l-148 590q-21 81 -28 203q-18 -137 -31 -205l-148 -588q-14 -61 -75 -61h-215q-52 0 -68 61l-320 1270q-16 62 46 62h225
q31 0 47 -15.5t24 -46.5l140 -573q6 -28 13.5 -68.5t13 -74.5t6.5 -40q12 85 36 183l146 573q8 31 24 46.5t47 15.5h207q56 0 72 -62zM1153 1737v-189q0 -33 -12.5 -46t-44.5 -13h-123q-32 0 -46 13.5t-14 45.5v189q0 32 14 46.5t46 14.5h123q32 0 44.5 -14t12.5 -47z
M836 1737v-189q0 -32 -13 -45.5t-45 -13.5h-123q-32 0 -45.5 13.5t-13.5 45.5v189q0 33 13.5 47t45.5 14h123q32 0 45 -14t13 -47z" />
    <glyph glyph-name="wdieresis" unicode="&#x1e85;" horiz-adv-x="1523" 
d="M750 1389v-189q0 -32 -13 -45.5t-45 -13.5h-123q-32 0 -45.5 13.5t-13.5 45.5v189q0 33 13.5 47t45.5 14h123q32 0 45 -14t13 -47zM1067 1389v-189q0 -33 -12.5 -46t-44.5 -13h-123q-32 0 -46 13.5t-14 45.5v189q0 32 14 46.5t46 14.5h123q32 0 44.5 -14t12.5 -47z
M1509 963l-260 -908q-10 -34 -20.5 -44.5t-40.5 -10.5h-252q-30 0 -43 12.5t-19 42.5l-83 391q-19 82 -19 113q-1 -2 -5 -20.5t-10.5 -46t-11.5 -46.5l-116 -391q-8 -31 -20 -43t-42 -12h-245q-30 0 -42 11.5t-20 43.5l-246 908q-9 31 8.5 46t51.5 15h200q30 0 45 -15
t23 -46l119 -455q4 -20 8 -45t5.5 -41.5t2.5 -18.5q0 12 25 105l127 455q8 31 22.5 46t44.5 15h199q55 0 68 -61l98 -455l18 -105q14 71 23 105l115 455q8 31 22.5 46t44.5 15h166q34 0 51 -15t8 -46z" />
    <glyph glyph-name="Ygrave" unicode="&#x1ef2;" horiz-adv-x="1142" 
d="M391 1331l146 -407q12 -36 34 -123q17 69 41 123l172 407q12 31 27.5 46.5t44.5 15.5h217q33 0 45.5 -16.5t-0.5 -45.5l-377 -815v-455q0 -33 -12.5 -47t-44.5 -14h-221q-32 0 -46 14.5t-14 46.5v414l-378 856q-12 28 -0.5 45t43.5 17h249q54 0 74 -62zM426 1530
l-141 207q-19 26 -10.5 43.5t40.5 17.5h220q57 0 83 -61l82 -189q25 -59 -32 -59h-162q-53 0 -80 41z" />
    <glyph glyph-name="ygrave" unicode="&#x1ef3;" horiz-adv-x="1011" 
d="M350 963l117 -371q8 -27 14.5 -56.5t10.5 -52.5t6.5 -42.5t4 -31.5t1.5 -14q2 13 19.5 82t29.5 105l127 381q10 32 24 46.5t44 14.5h190q34 0 51.5 -16t7.5 -45l-444 -1309q-9 -29 -24 -45.5t-44 -16.5h-151q-34 0 -51.5 16t-8.5 46l88 311l-348 998q-10 29 8 45t52 16
h209q30 0 43.5 -14.5t23.5 -46.5zM367 1182l-142 207q-19 26 -10 43.5t41 17.5h219q58 0 84 -61l82 -189q25 -59 -33 -59h-162q-52 0 -79 41z" />
    <glyph glyph-name="endash" unicode="&#x2013;" horiz-adv-x="1079" 
d="M164 723h751q33 0 47.5 -12.5t14.5 -44.5v-150q0 -32 -14.5 -45.5t-47.5 -13.5h-751q-33 0 -47.5 13.5t-14.5 45.5v150q0 32 14.5 44.5t47.5 12.5z" />
    <glyph glyph-name="emdash" unicode="&#x2014;" horiz-adv-x="1716" 
d="M164 723h1388q33 0 47.5 -12.5t14.5 -44.5v-150q0 -32 -14.5 -45.5t-47.5 -13.5h-1388q-33 0 -47.5 13.5t-14.5 45.5v150q0 32 14.5 44.5t47.5 12.5z" />
    <glyph glyph-name="quoteleft" unicode="&#x2018;" horiz-adv-x="600" 
d="M436 1217v-144q0 -33 -13.5 -47t-45.5 -14h-217q-32 0 -45 14t-13 47v162q0 251 338 328q32 8 49 -1t27 -40l49 -140q20 -57 -41 -75q-51 -15 -69.5 -35t-18.5 -55z" />
    <glyph glyph-name="quoteright" unicode="&#x2019;" horiz-adv-x="600" 
d="M164 1358v143q0 33 13.5 47.5t45.5 14.5h217q32 0 45 -14.5t13 -47.5v-162q0 -250 -338 -327q-32 -8 -49 1t-27 40l-49 139q-20 58 41 76q51 15 69.5 35t18.5 55z" />
    <glyph glyph-name="quotesinglbase" unicode="&#x201a;" horiz-adv-x="600" 
d="M164 86v143q0 33 13.5 47.5t45.5 14.5h217q32 0 45 -14.5t13 -47.5v-161q0 -251 -338 -328q-32 -8 -49 1t-27 40l-49 139q-20 58 41 76q51 15 69.5 35t18.5 55z" />
    <glyph glyph-name="quotedblleft" unicode="&#x201c;" horiz-adv-x="1103" 
d="M940 1217v-144q0 -33 -13.5 -47t-45.5 -14h-217q-32 0 -45 14t-13 47v162q0 251 338 328q32 8 49 -1t27 -40l49 -140q20 -57 -41 -75q-51 -15 -69.5 -35t-18.5 -55zM436 1217v-144q0 -33 -13.5 -47t-45.5 -14h-217q-32 0 -45 14t-13 47v162q0 251 338 328q32 8 49 -1
t27 -40l49 -140q20 -57 -41 -75q-51 -15 -69.5 -35t-18.5 -55z" />
    <glyph glyph-name="quotedblright" unicode="&#x201d;" horiz-adv-x="1103" 
d="M668 1358v143q0 33 13.5 47.5t45.5 14.5h217q32 0 44.5 -14.5t12.5 -47.5v-162q0 -250 -337 -327q-32 -8 -49 1t-27 40l-49 139q-20 58 41 76q51 15 69.5 35t18.5 55zM164 1358v143q0 33 13.5 47.5t45.5 14.5h217q32 0 45 -14.5t13 -47.5v-162q0 -250 -338 -327
q-32 -8 -49 1t-27 40l-49 139q-20 58 41 76q51 15 69.5 35t18.5 55z" />
    <glyph glyph-name="quotedblbase" unicode="&#x201e;" horiz-adv-x="1103" 
d="M668 86v143q0 33 13.5 47.5t45.5 14.5h217q32 0 44.5 -14.5t12.5 -47.5v-161q0 -251 -337 -328q-32 -8 -49 1t-27 40l-49 139q-20 58 41 76q51 15 69.5 35t18.5 55zM164 86v143q0 33 13.5 47.5t45.5 14.5h217q32 0 45 -14.5t13 -47.5v-161q0 -251 -338 -328q-32 -8 -49 1
t-27 40l-49 139q-20 58 41 76q51 15 69.5 35t18.5 55z" />
    <glyph glyph-name="dagger" unicode="&#x2020;" horiz-adv-x="1482" 
d="M905 1370v-1309q0 -33 -12.5 -47t-44.5 -14h-211q-32 0 -45.5 14t-13.5 47v1309q0 33 13.5 47.5t45.5 14.5h211q32 0 44.5 -14.5t12.5 -47.5zM184 1065h271q33 0 47 -12.5t14 -44.5v-150q0 -32 -14 -45.5t-47 -13.5h-271q-33 0 -47 13.5t-14 45.5v150q0 32 14 44.5
t47 12.5zM1028 1065h270q33 0 47.5 -12.5t14.5 -44.5v-150q0 -32 -14.5 -45.5t-47.5 -13.5h-270q-33 0 -47 13.5t-14 45.5v150q0 32 14 44.5t47 12.5z" />
    <glyph glyph-name="daggerdbl" unicode="&#x2021;" horiz-adv-x="1482" 
d="M905 1370v-1309q0 -33 -12.5 -47t-44.5 -14h-211q-32 0 -45.5 14t-13.5 47v1309q0 33 13.5 47.5t45.5 14.5h211q32 0 44.5 -14.5t12.5 -47.5zM184 1065h271q33 0 47 -12.5t14 -44.5v-150q0 -32 -14 -45.5t-47 -13.5h-271q-33 0 -47 13.5t-14 45.5v150q0 32 14 44.5
t47 12.5zM1028 1065h270q33 0 47.5 -12.5t14.5 -44.5v-150q0 -32 -14.5 -45.5t-47.5 -13.5h-270q-33 0 -47 13.5t-14 45.5v150q0 32 14 44.5t47 12.5zM184 625h271q33 0 47 -13t14 -45v-149q0 -32 -14.5 -46t-46.5 -14h-271q-32 0 -46.5 14t-14.5 46v149q0 32 14 45t47 13z
M1028 625h270q33 0 47.5 -13t14.5 -45v-149q0 -32 -14.5 -46t-47.5 -14h-270q-32 0 -46.5 14t-14.5 46v149q0 32 14 45t47 13z" />
    <glyph glyph-name="bullet" unicode="&#x2022;" horiz-adv-x="579" 
d="M457 721v-313q0 -33 -13 -46.5t-45 -13.5h-217q-32 0 -45.5 14t-13.5 46v313q0 33 13.5 47t45.5 14h217q32 0 45 -14t13 -47z" />
    <glyph glyph-name="ellipsis" unicode="&#x2026;" horiz-adv-x="1552" 
d="M436 229v-170q0 -33 -12.5 -46t-44.5 -13h-217q-32 0 -46 13.5t-14 45.5v170q0 33 14 47.5t46 14.5h217q32 0 44.5 -14.5t12.5 -47.5zM1450 229v-170q0 -33 -12.5 -46t-44.5 -13h-217q-32 0 -46 13.5t-14 45.5v170q0 33 14 47.5t46 14.5h217q32 0 44.5 -14.5t12.5 -47.5z
M944 229v-170q0 -33 -12.5 -46t-44.5 -13h-217q-32 0 -46 13.5t-14 45.5v170q0 33 14 47.5t46 14.5h217q32 0 44.5 -14.5t12.5 -47.5z" />
    <glyph glyph-name="perthousand" unicode="&#x2030;" horiz-adv-x="2654" 
d="M123 973v192q0 244 340 244q338 0 338 -244v-192q0 -244 -338 -244q-340 0 -340 244zM535 985v170q0 45 -74 45q-72 0 -72 -45v-170q0 -47 72 -47q74 0 74 47zM1479 236v170q0 45 -74 45q-72 0 -72 -45v-170q0 -48 72 -48q74 0 74 48zM1067 223v193q0 243 340 243
q338 0 338 -243v-193q0 -243 -338 -243q-340 0 -340 243zM2265 236v170q0 45 -74 45q-71 0 -71 -45v-170q0 -48 71 -48q74 0 74 48zM1853 223v193q0 243 340 243q338 0 338 -243v-193q0 -243 -338 -243q-340 0 -340 243zM1419 1331l-671 -1270q-18 -33 -37.5 -47t-51.5 -14
h-176q-26 0 -33 21t5 40l671 1270q30 62 88 62h177q27 0 34.5 -18.5t-6.5 -43.5z" />
    <glyph glyph-name="guilsinglleft" unicode="&#x2039;" horiz-adv-x="749" 
d="M565 623l-184 -121l184 -119q20 -13 31 -21.5t21 -25.5t10 -37v-205q0 -32 -20 -45t-42 2l-387 268q-55 35 -55 82v203q0 45 55 82l387 268q25 17 43.5 3.5t18.5 -46.5v-204q0 -20 -10.5 -36.5t-19.5 -24t-32 -23.5z" />
    <glyph glyph-name="guilsinglright" unicode="&#x203a;" horiz-adv-x="749" 
d="M369 502l-185 121q-23 16 -32 23.5t-19 24t-10 36.5v204q0 33 18 46.5t43 -3.5l387 -268q56 -37 56 -82v-203q0 -46 -56 -82l-387 -268q-22 -15 -41.5 -2t-19.5 45v205q0 29 15.5 47t45.5 37z" />
    <glyph glyph-name="fraction" unicode="&#x2044;" horiz-adv-x="937" 
d="M950 1331l-671 -1270q-18 -33 -37.5 -47t-51.5 -14h-176q-26 0 -33 21t5 40l671 1270q30 62 88 62h177q27 0 34.5 -18.5t-6.5 -43.5z" />
    <glyph glyph-name="Euro" unicode="&#x20ac;" horiz-adv-x="1361" 
d="M184 647h47v90h-47q-32 0 -46.5 14t-14.5 46v88q0 32 14 44.5t47 12.5h47v117q0 70 25.5 129.5t81 110.5t157 80.5t240.5 29.5t240.5 -29.5t157 -80.5t81 -110.5t25.5 -129.5v-94q0 -33 -12.5 -47.5t-44.5 -14.5h-211q-32 0 -46 14.5t-14 47.5v34q0 68 -46.5 101
t-125.5 33t-124.5 -33t-45.5 -101v-57h150q33 0 47 -12.5t14 -44.5v-88q0 -32 -14.5 -46t-46.5 -14h-150v-90h150q33 0 47 -12.5t14 -44.5v-88q0 -32 -14.5 -46t-46.5 -14h-150v-49q0 -68 45.5 -100.5t124.5 -32.5t125.5 32.5t46.5 100.5v66q0 32 14 46.5t46 14.5h211
q32 0 44.5 -14t12.5 -47v-125q0 -70 -25.5 -129.5t-81 -110.5t-157 -80.5t-240.5 -29.5t-240.5 29.5t-157 80.5t-81 110.5t-25.5 129.5v108h-47q-32 0 -46.5 14t-14.5 46v88q0 32 14 44.5t47 12.5z" />
    <glyph glyph-name="afii61289" unicode="&#x2113;" horiz-adv-x="1210" 
d="M195 313v6l-13 -6q-55 -27 -78 29l-67 158q-25 56 33 80l125 59v420q0 68 26.5 129t79.5 111.5t141.5 80t202.5 29.5q107 0 190.5 -29.5t133.5 -80t75 -111.5t25 -129q0 -60 -16.5 -115.5t-43.5 -101t-70 -90t-87 -79t-103.5 -71.5t-110 -64t-116.5 -59v-84
q0 -129 119 -129h248q33 0 47 -12.5t14 -44.5v-150q0 -32 -13.5 -45.5t-45.5 -13.5h-252q-228 0 -336 86t-108 227zM522 1014v-213q240 135 240 233q0 51 -33.5 80t-87.5 29q-119 0 -119 -129z" />
    <glyph glyph-name="trademark" unicode="&#x2122;" horiz-adv-x="1910" 
d="M1788 1341v-733q0 -28 -11 -39.5t-38 -11.5h-166q-27 0 -38 11.5t-11 39.5v285q-1 -2 -4.5 -12t-8.5 -24t-8 -23l-45 -101q-22 -49 -65 -49h-115q-48 0 -70 49l-51 105q-11 24 -22 69v-299q0 -28 -11 -39.5t-37 -11.5h-157q-28 0 -39.5 11.5t-11.5 39.5v733q0 28 11.5 40
t39.5 12h157q31 0 43 -23l168 -311q24 -45 35 -76q11 31 31 70l164 317q10 23 45 23h166q27 0 38 -12t11 -40zM174 1393h565q28 0 40 -10.5t12 -36.5v-132q0 -27 -12 -38t-40 -11h-143v-557q0 -28 -11 -39.5t-38 -11.5h-178q-28 0 -39 11.5t-11 39.5v557h-145
q-28 0 -39.5 11t-11.5 38v132q0 26 11.5 36.5t39.5 10.5z" />
    <glyph glyph-name="uni2126" unicode="&#x2126;" horiz-adv-x="839" 
d="M127 662q0 120 85.5 206t205.5 86t206.5 -86t86.5 -206t-86.5 -205.5t-206.5 -85.5t-205.5 85.5t-85.5 205.5zM170 662q0 -104 72 -176t176 -72q103 0 176.5 72t73.5 176q0 103 -73.5 176t-176.5 73q-104 0 -176 -73t-72 -176z" />
    <glyph glyph-name="estimated" unicode="&#x212e;" horiz-adv-x="1705" 
d="M1554 696q0 -21 -8 -26.5t-30 -5.5h-1059v-465q168 -133 389 -133q153 0 267 57t214 166q10 10 25 10t27 -12.5t12 -30.5q0 -16 -17 -37q-93 -109 -233 -172t-295 -63q-196 0 -358 88t-258.5 252t-96.5 372q0 145 56.5 277t152 227.5t227.5 152t277 56.5t276 -56.5
t225.5 -152t150.5 -227.5t56 -277zM846 1327q-219 0 -389 -135v-457h780v457q-175 135 -391 135z" />
    <glyph glyph-name="partialdiff" unicode="&#x2202;" horiz-adv-x="839" 
d="M174 375v588q0 18 12 25.5t29.5 5t34.5 -12.5l444 -274q22 -13 22 -36.5t-22 -37.5l-444 -275q-25 -17 -50.5 -13.5t-25.5 30.5z" />
    <glyph glyph-name="uni2206" unicode="&#x2206;" horiz-adv-x="839" 
d="M225 911h389q54 0 54 -53v-389q0 -53 -54 -53h-389q-53 0 -53 53v389q0 53 53 53z" />
    <glyph glyph-name="product" unicode="&#x220f;" horiz-adv-x="839" 
d="M715 393h-588q-18 0 -25.5 12t-5 29.5t12.5 34.5l274 444q13 22 37 22t37 -22l274 -444q17 -25 14 -50.5t-30 -25.5z" />
    <glyph glyph-name="summation" unicode="&#x2211;" horiz-adv-x="839" 
d="M666 963v-588q0 -27 -25.5 -30.5t-50.5 13.5l-445 275q-22 14 -22 37.5t22 36.5l445 274q17 10 34.5 12.5t29.5 -5t12 -25.5z" />
    <glyph glyph-name="minus" unicode="&#x2212;" horiz-adv-x="1181" 
d="M164 797h854q33 0 47 -13t14 -45v-149q0 -32 -14.5 -46t-46.5 -14h-854q-33 0 -47.5 14t-14.5 46v149q0 32 14.5 45t47.5 13z" />
    <glyph glyph-name="radical" unicode="&#x221a;" horiz-adv-x="839" 
d="M225 932h389q40 0 57 -17t17 -57v-389q0 -40 -17 -57t-57 -17h-389q-40 0 -56.5 17t-16.5 57v389q0 40 16.5 57t56.5 17zM614 889h-389q-32 0 -32 -31v-389q0 -33 32 -33h389q31 0 31 33v389q0 31 -31 31z" />
    <glyph glyph-name="infinity" unicode="&#x221e;" horiz-adv-x="839" 
d="M92 715l277 276q27 27 51 27t51 -27l277 -276q26 -26 26 -51q0 -26 -26 -52l-277 -276q-29 -29 -51 -29t-51 29l-277 276q-29 29 -29 52q0 22 29 51zM397 961l-274 -275q-12 -12 -12 -24q0 -11 10 -21l276 -276q8 -11 23 -11q11 0 22 11l277 276q10 10 10 21q0 12 -12 24
l-275 275q-13 10 -22 10q-13 0 -23 -10z" />
    <glyph glyph-name="integral" unicode="&#x222b;" horiz-adv-x="839" 
d="M41 662q0 157 110 267.5t267 110.5t268 -110.5t111 -267.5t-111 -267t-268 -110t-267 110t-110 267z" />
    <glyph glyph-name="approxequal" unicode="&#x2248;" horiz-adv-x="1048" 
d="M373 748q-34 0 -45 -56l-2 -8q-7 -31 -21.5 -42t-44.5 -11h-106q-56 0 -50 69l11 115q6 63 35.5 105.5t66.5 59.5t78 17q75 0 123 -22l182 -82q58 -23 80 -23q13 0 23.5 15t15.5 35l2 8q8 31 21 42t44 11h107q61 0 51 -70l-12 -94q-13 -99 -62.5 -150t-117.5 -51
q-69 0 -134 29l-182 84q-42 19 -63 19zM373 334q-34 0 -45 -55l-2 -9q-7 -31 -21.5 -42t-44.5 -11h-106q-56 0 -50 70l11 114q8 92 61.5 137.5t118.5 45.5q73 0 123 -23l182 -82q55 -22 80 -22q13 0 23.5 14.5t15.5 34.5l2 8q8 31 21 42t44 11h107q61 0 51 -69l-12 -95
q-13 -98 -62.5 -149t-117.5 -51q-71 0 -134 28l-182 84q-42 19 -63 19z" />
    <glyph glyph-name="notequal" unicode="&#x2260;" horiz-adv-x="1181" 
d="M164 1004h397l39 102q11 32 28 46.5t48 14.5h196q63 0 41 -61l-39 -102h144q33 0 47 -13t14 -45v-149q0 -32 -14.5 -46t-46.5 -14h-242l-63 -176h305q33 0 47 -12.5t14 -44.5v-150q0 -32 -14 -45.5t-47 -13.5h-404l-36 -100q-12 -33 -29.5 -47.5t-48.5 -14.5h-195
q-60 0 -39 62l37 100h-139q-33 0 -47.5 13.5t-14.5 45.5v150q0 32 14.5 44.5t47.5 12.5h235l66 176h-301q-33 0 -47.5 14t-14.5 46v149q0 32 14.5 45t47.5 13z" />
    <glyph glyph-name="lessequal" unicode="&#x2264;" horiz-adv-x="1054" 
d="M891 1010l-471 -125l471 -123q31 -8 46 -23t15 -45v-200q0 -35 -15.5 -53t-45.5 -7l-733 268q-14 6 -22 10t-17 11.5t-13 18.5t-4 26v236q0 20 8.5 33.5t18 18.5t29.5 13l733 268q29 10 45 -7.5t16 -51.5v-201q0 -30 -15 -44.5t-46 -22.5zM164 369h727q33 0 47 -13
t14 -45v-149q0 -32 -14.5 -46t-46.5 -14h-727q-33 0 -47.5 14t-14.5 46v149q0 32 14.5 45t47.5 13z" />
    <glyph glyph-name="greaterequal" unicode="&#x2265;" horiz-adv-x="1054" 
d="M635 885l-471 125q-31 8 -46.5 22.5t-15.5 44.5v201q0 34 16.5 51.5t45.5 7.5l733 -268q15 -6 22.5 -9.5t16.5 -11t12.5 -18t3.5 -26.5v-236q0 -29 -13 -42t-42 -24l-733 -268q-30 -11 -46 7t-16 53v200q0 30 15.5 45t46.5 23zM164 369h727q33 0 47 -13t14 -45v-149
q0 -32 -14.5 -46t-46.5 -14h-727q-33 0 -47.5 14t-14.5 46v149q0 32 14.5 45t47.5 13z" />
    <glyph glyph-name="lozenge" unicode="&#x25ca;" horiz-adv-x="839" 
d="M106 700l277 277q18 18 37 18t37 -18l276 -277q19 -19 19 -36q0 -18 -19 -37l-276 -277q-18 -18 -37 -18t-37 18l-277 277q-18 18 -18 37q0 18 18 36z" />
    <glyph glyph-name="CR" horiz-adv-x="0" 
 />
    <glyph glyph-name="commaaccent" horiz-adv-x="612" 
d="M207 164v65q0 33 13.5 47.5t45.5 14.5h156q32 0 44.5 -14.5t12.5 -47.5v-84q0 -135 -98 -286q-17 -26 -37.5 -32t-42.5 1l-117 27q-58 14 -30 79q38 83 44 113q9 40 9 117z" />
    <glyph glyph-name="acute.case" horiz-adv-x="368" 
d="M389 1737l-141 -207q-27 -41 -80 -41h-162q-58 0 -33 59l82 189q26 61 84 61h219q32 0 41 -17.5t-10 -43.5z" />
    <glyph glyph-name="macron.case" horiz-adv-x="368" 
d="M-41 1761h453q33 0 47 -12.5t14 -44.5v-129q0 -32 -14 -45.5t-47 -13.5h-453q-33 0 -47 13.5t-14 45.5v129q0 32 14 44.5t47 12.5z" />
    <glyph glyph-name="breve.case" horiz-adv-x="368" 
d="M113 1755v-35q0 -67 71 -67q72 0 72 67v35q0 28 12 38.5t41 10.5h125q29 0 41 -10.5t12 -38.5v-26q0 -127 -83.5 -197t-227.5 -70q-143 0 -219 69t-76 198v26q0 28 12 38.5t41 10.5h125q30 0 42 -11t12 -38z" />
    <glyph glyph-name="caron.case" horiz-adv-x="368" 
d="M160 1739l24 -58l25 58q10 24 32 41.5t52 17.5h160q32 0 41.5 -17t-9.5 -42l-145 -189q-23 -30 -44.5 -45.5t-51.5 -15.5h-119q-30 0 -51.5 15.5t-44.5 45.5l-146 189q-19 25 -9 42t42 17h160q30 0 52 -17.5t32 -41.5z" />
    <glyph glyph-name="ring.case" horiz-adv-x="368" 
d="M434 1692v-70q0 -69 -63 -116.5t-187 -47.5t-187 47.5t-63 116.5v70q0 69 63 116t187 47t187 -47t63 -116zM262 1640v33q0 56 -78 56t-78 -56v-33q0 -57 78 -57t78 57z" />
    <glyph glyph-name="circumflex.case" horiz-adv-x="368" 
d="M184 1606l-24 -58q-10 -24 -32 -41.5t-52 -17.5h-160q-32 0 -42 17t9 42l146 189q23 30 44.5 45.5t51.5 15.5h119q30 0 51.5 -15.5t44.5 -45.5l145 -189q19 -25 9.5 -42t-41.5 -17h-160q-57 0 -84 59z" />
    <glyph glyph-name="tilde.case" horiz-adv-x="368" 
d="M76 1577q-32 0 -39 -27l-2 -8q-7 -31 -21.5 -42t-44.5 -11h-108q-56 0 -49 70l12 100q9 71 63 113.5t129 42.5q60 0 119 -23l86 -33q62 -24 74 -24q33 0 39 26l2 8q8 31 21.5 42.5t43.5 11.5h107q58 0 51 -70l-8 -92q-7 -75 -55 -115.5t-117 -40.5q-73 0 -141 21l-88 28
q-10 4 -28.5 11t-28 9.5t-17.5 2.5z" />
    <glyph glyph-name="dieresis.case" horiz-adv-x="368" 
d="M145 1737v-189q0 -33 -12.5 -46t-44.5 -13h-123q-32 0 -45.5 13.5t-13.5 45.5v189q0 33 13.5 47t45.5 14h123q32 0 44.5 -14t12.5 -47zM463 1737v-189q0 -33 -12.5 -46t-44.5 -13h-123q-32 0 -46 13.5t-14 45.5v189q0 32 14 46.5t46 14.5h123q32 0 44.5 -14t12.5 -47z
" />
    <glyph glyph-name="dotaccent.case" horiz-adv-x="368" 
d="M352 1718v-170q0 -33 -12.5 -46t-44.5 -13h-217q-32 0 -46 13.5t-14 45.5v170q0 33 14 47.5t46 14.5h217q32 0 44.5 -14.5t12.5 -47.5z" />
    <glyph glyph-name="grave.case" horiz-adv-x="368" 
d="M121 1530l-141 207q-19 26 -10.5 43.5t40.5 17.5h219q58 0 84 -61l82 -189q25 -59 -33 -59h-161q-53 0 -80 41z" />
    <glyph glyph-name="hungarumlaut.case" horiz-adv-x="368" 
d="M559 1737l-135 -189q-41 -59 -90 -59h-154q-65 0 -33 59l105 189q36 61 92 61h184q32 0 41 -17.5t-10 -43.5zM186 1737l-104 -189q-17 -31 -33.5 -45t-46.5 -14h-154q-65 0 -43 59l74 189q25 61 82 61h184q32 0 43.5 -17.5t-2.5 -43.5z" />
    <glyph glyph-name="apple" horiz-adv-x="3012" 
d="M1446 655q35 0 58.5 -27.5t23.5 -76.5q0 -64 -43.5 -101.5t-134.5 -37.5v-82l6 -66q-48 -16 -66 -16q-22 0 -22 16v154l-51 -6v-6q0 -31 -6.5 -58t-21.5 -51.5t-43.5 -38.5t-68.5 -14q-43 0 -63.5 21t-20.5 48q0 75 144 109v86q-5 -14 -12 -28t-18.5 -31.5t-28.5 -28
t-36 -10.5q-57 0 -57 63v6q-37 -67 -108 -67q-28 0 -44 16.5t-16 44.5v207l-59 -4v8q0 41 24 41h35l-6 61q51 17 66 17q22 0 22 -17v-59h96v-6q0 -43 -24 -43h-72v-176q0 -33 27 -33q19 0 39 15.5t20 37.5v51l-6 68q48 16 65 16q23 0 23 -18v-135q0 -31 14 -31t34.5 35.5
t19.5 62.5l-5 70q48 16 64 16q23 0 23 -18v-203l51 6v125l-6 74q48 16 65 16q23 0 23 -18v-82q34 98 96 98zM768 592v-100l6 -66q-48 -16 -63 -16q-23 0 -23 16v135q0 33 -16 33q-13 0 -34 -36t-20 -62l5 -70q-48 -16 -64 -16q-22 0 -22 16v135q0 33 -17 33
q-14 0 -33.5 -35.5t-19.5 -62.5l6 -70q-48 -16 -65 -16q-23 0 -23 16v141l-6 74q48 16 65 16q23 0 23 -18v-82q9 33 33 66.5t59 33.5q59 0 59 -65v-35q9 34 33 67t60 33q57 0 57 -65zM2474 680l-59 -4v8q0 41 24 41h35l-6 61q51 17 65 17q23 0 23 -17v-59h96v-6
q0 -43 -24 -43h-72v-184q0 -31 33 -31q22 0 78.5 11t95.5 11q36 0 81.5 -12t45.5 -37q0 -29 -19.5 -43t-36.5 -14q-4 0 -54 24.5t-91 24.5q-14 0 -65.5 -8t-90.5 -8q-40 0 -48 24.5t-9 132.5q-1 68 -2 111zM131 1083v17h2740v-17h-2740zM131 0v16h2740v-16h-2740zM2183 592
v-100l4 -66q-48 -16 -63 -16q-23 0 -23 16v137q0 31 -16 31q-14 0 -33.5 -35.5t-19.5 -62.5l6 -70q-48 -16 -66 -16q-22 0 -22 16v141l-6 74q48 16 65 16q23 0 23 -18v-82q34 100 92 100q59 0 59 -65zM297 528q-33 -12 -90 -12q1 -21 16 -33t37 -12q36 0 66 18
q16 -11 16 -32q0 -8 -5.5 -17t-29 -19.5t-61.5 -10.5q-57 0 -90 30t-33 78q0 56 38 97.5t103 41.5q40 0 62 -19.5t22 -43.5q0 -49 -51 -66zM1729 528q-33 -12 -91 -12q1 -21 16.5 -33t37.5 -12q35 0 65 18q17 -11 17 -32q0 -8 -6 -17t-29.5 -19.5t-61.5 -10.5q-57 0 -90 30
t-33 78q0 56 38 97.5t104 41.5q40 0 62 -19.5t22 -43.5q0 -49 -51 -66zM2390 528q-33 -12 -90 -12q1 -21 16 -33t37 -12q36 0 66 18q16 -11 16 -32q0 -8 -5.5 -17t-29 -19.5t-61.5 -10.5q-57 0 -90 30t-33 78q0 56 38 97.5t103 41.5q40 0 62 -19.5t22 -43.5q0 -49 -51 -66z
M1350 449q92 12 92 104q0 41 -27 41q-26 0 -45.5 -38t-19.5 -60v-47zM1862 512q22 0 37.5 -14t15.5 -35q0 -20 -15.5 -33.5t-37.5 -13.5t-37 13.5t-15 33.5q0 21 15 35t37 14zM1135 397q-84 -19 -84 -65q0 -14 8 -21.5t20 -7.5q51 0 56 94zM205 541q31 0 53.5 10.5
t22.5 32.5q0 26 -27 26q-20 0 -33 -20.5t-16 -48.5zM2298 541q31 0 53.5 10.5t22.5 32.5q0 26 -27 26q-20 0 -33 -20.5t-16 -48.5zM1636 541q31 0 53.5 10.5t22.5 32.5q0 26 -26 26q-20 0 -33.5 -20.5t-16.5 -48.5z" />
    </font>
</defs>
</svg>
